  0
SECTION
  2
HEADER
  9
$ACADVER
  1
AC1015
  9
$ACADMAINTVER
 70
    20
  9
$DWGCODEPAGE
  3
ANSI_936
  9
$INSBASE
 10
0.0
 20
0.0
 30
0.0
  9
$EXTMIN
 10
1362.566536704773
 20
49.68530674499925
 30
0.0
  9
$EXTMAX
 10
1543.073075198378
 20
196.4695699277217
 30
0.0
  9
$LIMMIN
 10
0.0
 20
0.0
  9
$LIMMAX
 10
12.0
 20
9.0
  9
$ORTHOMODE
 70
     0
  9
$REGENMODE
 70
     1
  9
$FILLMODE
 70
     1
  9
$QTEXTMODE
 70
     0
  9
$MIRRTEXT
 70
     0
  9
$LTSCALE
 40
1.0
  9
$ATTMODE
 70
     1
  9
$TEXTSIZE
 40
0.2
  9
$TRACEWID
 40
0.05
  9
$TEXTSTYLE
  7
STANDARD
  9
$CLAYER
  8
标注线
  9
$CELTYPE
  6
ByLayer
  9
$CECOLOR
 62
   256
  9
$CELTSCALE
 40
1.0
  9
$DISPSILH
 70
     0
  9
$DIMSCALE
 40
1.0
  9
$DIMASZ
 40
0.65
  9
$DIMEXO
 40
0.88
  9
$DIMDLI
 40
0.015
  9
$DIMRND
 40
0.0
  9
$DIMDLE
 40
0.0
  9
$DIMEXE
 40
0.32
  9
$DIMTP
 40
0.0
  9
$DIMTM
 40
0.0
  9
$DIMTXT
 40
0.65
  9
$DIMCEN
 40
0.09
  9
$DIMTSZ
 40
0.0
  9
$DIMTOL
 70
     0
  9
$DIMLIM
 70
     0
  9
$DIMTIH
 70
     0
  9
$DIMTOH
 70
     0
  9
$DIMSE1
 70
     0
  9
$DIMSE2
 70
     0
  9
$DIMTAD
 70
     0
  9
$DIMZIN
 70
     8
  9
$DIMBLK
  1

  9
$DIMASO
 70
     1
  9
$DIMSHO
 70
     1
  9
$DIMPOST
  1
"
  9
$DIMAPOST
  1
"
  9
$DIMALT
 70
     0
  9
$DIMALTD
 70
     1
  9
$DIMALTF
 40
0.03937
  9
$DIMLFAC
 40
1.0
  9
$DIMTOFL
 70
     1
  9
$DIMTVP
 40
0.0
  9
$DIMTIX
 70
     0
  9
$DIMSOXD
 70
     0
  9
$DIMSAH
 70
     0
  9
$DIMBLK1
  1

  9
$DIMBLK2
  1

  9
$DIMSTYLE
  2
副本STANDARD
  9
$DIMCLRD
 70
   256
  9
$DIMCLRE
 70
   256
  9
$DIMCLRT
 70
   256
  9
$DIMTFAC
 40
1.0
  9
$DIMGAP
 40
0.3
  9
$DIMJUST
 70
     0
  9
$DIMSD1
 70
     0
  9
$DIMSD2
 70
     0
  9
$DIMTOLJ
 70
     1
  9
$DIMTZIN
 70
     8
  9
$DIMALTZ
 70
     8
  9
$DIMALTTZ
 70
     8
  9
$DIMUPT
 70
     0
  9
$DIMDEC
 70
     3
  9
$DIMTDEC
 70
     3
  9
$DIMALTU
 70
     2
  9
$DIMALTTD
 70
     1
  9
$DIMTXSTY
  7
STANDARD
  9
$DIMAUNIT
 70
     0
  9
$DIMADEC
 70
     0
  9
$DIMALTRND
 40
0.0
  9
$DIMAZIN
 70
     0
  9
$DIMDSEP
 70
    46
  9
$DIMATFIT
 70
     3
  9
$DIMFRAC
 70
     2
  9
$DIMLDRBLK
  1

  9
$DIMLUNIT
 70
     5
  9
$DIMLWD
 70
    -2
  9
$DIMLWE
 70
    -2
  9
$DIMTMOVE
 70
     2
  9
$LUNITS
 70
     2
  9
$LUPREC
 70
     4
  9
$SKETCHINC
 40
0.1
  9
$FILLETRAD
 40
0.0
  9
$AUNITS
 70
     0
  9
$AUPREC
 70
     0
  9
$MENU
  1
.
  9
$ELEVATION
 40
0.0
  9
$PELEVATION
 40
0.0
  9
$THICKNESS
 40
0.0
  9
$LIMCHECK
 70
     0
  9
$CHAMFERA
 40
0.0
  9
$CHAMFERB
 40
0.0
  9
$CHAMFERC
 40
0.0
  9
$CHAMFERD
 40
0.0
  9
$SKPOLY
 70
     0
  9
$TDCREATE
 40
2455434.724808658
  9
$TDUCREATE
 40
2455434.391475324
  9
$TDUPDATE
 40
2458649.581705417
  9
$TDUUPDATE
 40
2458649.248372084
  9
$TDINDWG
 40
0.7725559375
  9
$TDUSRTIMER
 40
0.7725381829
  9
$USRTIMER
 70
     1
  9
$ANGBASE
 50
0.0
  9
$ANGDIR
 70
     0
  9
$PDMODE
 70
     0
  9
$PDSIZE
 40
0.0
  9
$PLINEWID
 40
0.0
  9
$SPLFRAME
 70
     0
  9
$SPLINETYPE
 70
     6
  9
$SPLINESEGS
 70
     8
  9
$HANDSEED
  5
8FA1
  9
$SURFTAB1
 70
     6
  9
$SURFTAB2
 70
     6
  9
$SURFTYPE
 70
     6
  9
$SURFU
 70
     6
  9
$SURFV
 70
     6
  9
$UCSBASE
  2

  9
$UCSNAME
  2

  9
$UCSORG
 10
0.0
 20
0.0
 30
0.0
  9
$UCSXDIR
 10
1.0
 20
0.0
 30
0.0
  9
$UCSYDIR
 10
0.0
 20
1.0
 30
0.0
  9
$UCSORTHOREF
  2

  9
$UCSORTHOVIEW
 70
     0
  9
$UCSORGTOP
 10
0.0
 20
0.0
 30
0.0
  9
$UCSORGBOTTOM
 10
0.0
 20
0.0
 30
0.0
  9
$UCSORGLEFT
 10
0.0
 20
0.0
 30
0.0
  9
$UCSORGRIGHT
 10
0.0
 20
0.0
 30
0.0
  9
$UCSORGFRONT
 10
0.0
 20
0.0
 30
0.0
  9
$UCSORGBACK
 10
0.0
 20
0.0
 30
0.0
  9
$PUCSBASE
  2

  9
$PUCSNAME
  2

  9
$PUCSORG
 10
0.0
 20
0.0
 30
0.0
  9
$PUCSXDIR
 10
1.0
 20
0.0
 30
0.0
  9
$PUCSYDIR
 10
0.0
 20
1.0
 30
0.0
  9
$PUCSORTHOREF
  2

  9
$PUCSORTHOVIEW
 70
     0
  9
$PUCSORGTOP
 10
0.0
 20
0.0
 30
0.0
  9
$PUCSORGBOTTOM
 10
0.0
 20
0.0
 30
0.0
  9
$PUCSORGLEFT
 10
0.0
 20
0.0
 30
0.0
  9
$PUCSORGRIGHT
 10
0.0
 20
0.0
 30
0.0
  9
$PUCSORGFRONT
 10
0.0
 20
0.0
 30
0.0
  9
$PUCSORGBACK
 10
0.0
 20
0.0
 30
0.0
  9
$USERI1
 70
     0
  9
$USERI2
 70
     0
  9
$USERI3
 70
     0
  9
$USERI4
 70
     0
  9
$USERI5
 70
     0
  9
$USERR1
 40
0.0
  9
$USERR2
 40
0.0
  9
$USERR3
 40
0.0
  9
$USERR4
 40
0.0
  9
$USERR5
 40
2.5
  9
$WORLDVIEW
 70
     1
  9
$SHADEDGE
 70
     3
  9
$SHADEDIF
 70
    70
  9
$TILEMODE
 70
     1
  9
$MAXACTVP
 70
    64
  9
$PINSBASE
 10
0.0
 20
0.0
 30
0.0
  9
$PLIMCHECK
 70
     0
  9
$PEXTMIN
 10
1.000000000000000E+20
 20
1.000000000000000E+20
 30
1.000000000000000E+20
  9
$PEXTMAX
 10
-1.000000000000000E+20
 20
-1.000000000000000E+20
 30
-1.000000000000000E+20
  9
$PLIMMIN
 10
0.0
 20
0.0
  9
$PLIMMAX
 10
12.0
 20
9.0
  9
$UNITMODE
 70
     0
  9
$VISRETAIN
 70
     1
  9
$PLINEGEN
 70
     0
  9
$PSLTSCALE
 70
     1
  9
$TREEDEPTH
 70
  3020
  9
$CMLSTYLE
  2
Standard
  9
$CMLJUST
 70
     0
  9
$CMLSCALE
 40
1.0
  9
$PROXYGRAPHICS
 70
     1
  9
$MEASUREMENT
 70
     0
  9
$CELWEIGHT
370
    -1
  9
$ENDCAPS
280
     0
  9
$JOINSTYLE
280
     0
  9
$LWDISPLAY
290
     0
  9
$INSUNITS
 70
     0
  9
$HYPERLINKBASE
  1

  9
$STYLESHEET
  1

  9
$XEDIT
290
     1
  9
$CEPSNTYPE
380
     0
  9
$PSTYLEMODE
290
     1
  9
$FINGERPRINTGUID
  2
{7BAC09DB-C4D0-41DB-8C07-4C6808ADD930}
  9
$VERSIONGUID
  2
{F298BC4A-7DFE-4E86-B6A5-2C942990F494}
  9
$EXTNAMES
290
     1
  9
$PSVPSCALE
 40
0.0
  9
$OLESTARTUP
290
     0
  0
ENDSEC
  0
SECTION
  2
CLASSES
  0
CLASS
  1
ACDBDICTIONARYWDFLT
  2
AcDbDictionaryWithDefault
  3
ObjectDBX Classes
 90
        0
280
     0
281
     0
  0
CLASS
  1
MATERIAL
  2
AcDbMaterial
  3
ObjectDBX Classes
 90
     1153
280
     0
281
     0
  0
CLASS
  1
VISUALSTYLE
  2
AcDbVisualStyle
  3
ObjectDBX Classes
 90
     4095
280
     0
281
     0
  0
CLASS
  1
SCALE
  2
AcDbScale
  3
ObjectDBX Classes
 90
     1153
280
     0
281
     0
  0
CLASS
  1
TABLESTYLE
  2
AcDbTableStyle
  3
ObjectDBX Classes
 90
     4095
280
     0
281
     0
  0
CLASS
  1
MLEADERSTYLE
  2
AcDbMLeaderStyle
  3
ACDB_MLEADERSTYLE_CLASS
 90
     4095
280
     0
281
     0
  0
CLASS
  1
VLO-VL
  2
vlo_VL
  3
VL|AutoLISP based application
 90
      129
280
     0
281
     0
  0
CLASS
  1
DICTIONARYVAR
  2
AcDbDictionaryVar
  3
ObjectDBX Classes
 90
        0
280
     0
281
     0
  0
CLASS
  1
CELLSTYLEMAP
  2
AcDbCellStyleMap
  3
ObjectDBX Classes
 90
     1152
280
     0
281
     0
  0
CLASS
  1
DIMASSOC
  2
AcDbDimAssoc
  3
"AcDbDimAssoc|Product Desc:     AcDim ARX App For Dimension|Company:          Autodesk, Inc.|WEB Address:      www.autodesk.com"
 90
        0
280
     0
281
     0
  0
CLASS
  1
SORTENTSTABLE
  2
AcDbSortentsTable
  3
ObjectDBX Classes
 90
        0
280
     0
281
     0
  0
CLASS
  1
ACDBPLACEHOLDER
  2
AcDbPlaceHolder
  3
ObjectDBX Classes
 90
        0
280
     0
281
     0
  0
CLASS
  1
LAYOUT
  2
AcDbLayout
  3
ObjectDBX Classes
 90
        0
280
     0
281
     0
  0
ENDSEC
  0
SECTION
  2
TABLES
  0
TABLE
  2
VPORT
  5
5F02
330
0
100
AcDbSymbolTable
 70
     1
  0
VPORT
  5
5F73
330
5F02
100
AcDbSymbolTableRecord
100
AcDbViewportTableRecord
  2
*ACTIVE
 70
     0
 10
0.0
 20
0.0
 11
1.0
 21
1.0
 12
1474.853896510182
 22
141.7930968342023
 13
0.0
 23
0.0
 14
0.5
 24
0.5
 15
0.5
 25
0.5
 16
0.0
 26
0.0
 36
1.0
 17
0.0
 27
0.0
 37
0.0
 40
99.30419334864929
 41
1.622972972972972
 42
50.0
 43
0.0
 44
0.0
 50
0.0
 51
0.0
 71
     0
 72
  1000
 73
     1
 74
     3
 75
     0
 76
     0
 77
     0
 78
     0
281
     0
 65
     1
110
0.0
120
0.0
130
0.0
111
1.0
121
0.0
131
0.0
112
0.0
122
1.0
132
0.0
 79
     0
146
0.0
  0
ENDTAB
  0
TABLE
  2
LTYPE
  5
5EFF
330
0
100
AcDbSymbolTable
 70
     5
  0
LTYPE
  5
5F5C
330
5EFF
100
AcDbSymbolTableRecord
100
AcDbLinetypeTableRecord
  2
ByBlock
 70
     0
  3

 72
    65
 73
     0
 40
0.0
  0
LTYPE
  5
5F5D
330
5EFF
100
AcDbSymbolTableRecord
100
AcDbLinetypeTableRecord
  2
ByLayer
 70
     0
  3

 72
    65
 73
     0
 40
0.0
  0
LTYPE
  5
5F5E
330
5EFF
100
AcDbSymbolTableRecord
100
AcDbLinetypeTableRecord
  2
CONTINUOUS
 70
     0
  3
Solid line
 72
    65
 73
     0
 40
0.0
  0
LTYPE
  5
5F74
330
5EFF
100
AcDbSymbolTableRecord
100
AcDbLinetypeTableRecord
  2
CENTER2
 70
     0
  3
Center (.5x) ___ _ ___ _ ___ _ ___ _ ___ _ ___
 72
    65
 73
     4
 40
28.575
 49
19.05
 74
     0
 49
-3.174999999999998
 74
     0
 49
3.174999999999998
 74
     0
 49
-3.174999999999998
 74
     0
  0
LTYPE
  5
5F75
330
5EFF
100
AcDbSymbolTableRecord
100
AcDbLinetypeTableRecord
  2
HIDDEN2
 70
     0
  3
Hidden (.5x) _ _ _ _ _ _ _ _ _ _ _ _ _ _ _ _ _
 72
    65
 73
     2
 40
4.762499999999998
 49
3.174999999999998
 74
     0
 49
-1.587499999999999
 74
     0
  0
LTYPE
  5
88C9
330
5EFF
100
AcDbSymbolTableRecord
100
AcDbLinetypeTableRecord
  2
ACAD_ISO02W100
 70
     0
  3
ISO dash __ __ __ __ __ __ __ __ __ __ __ __ __
 72
    65
 73
     2
 40
15.0
 49
12.0
 74
     0
 49
-3.0
 74
     0
  0
ENDTAB
  0
TABLE
  2
LAYER
  5
5EFC
102
{ACAD_XDICTIONARY
360
61B7
102
}
330
0
100
AcDbSymbolTable
 70
     9
  0
LAYER
  5
5F56
102
{ACAD_XDICTIONARY
360
60F4
102
}
330
5EFC
100
AcDbSymbolTableRecord
100
AcDbLayerTableRecord
  2
0
 70
     0
 62
     7
  6
CONTINUOUS
370
    -3
390
5F09
  0
LAYER
  5
5F72
102
{ACAD_XDICTIONARY
360
60F6
102
}
330
5EFC
100
AcDbSymbolTableRecord
100
AcDbLayerTableRecord
  2
标注
 70
     0
 62
    80
  6
CONTINUOUS
370
    -3
390
5F09
  0
LAYER
  5
5F7D
102
{ACAD_XDICTIONARY
360
60F8
102
}
330
5EFC
100
AcDbSymbolTableRecord
100
AcDbLayerTableRecord
  2
中心线
 70
     0
 62
     1
  6
CENTER2
370
    -3
390
5F09
  0
LAYER
  5
5F7F
330
5EFC
100
AcDbSymbolTableRecord
100
AcDbLayerTableRecord
  2
DEFPOINTS
 70
     0
 62
     7
  6
CONTINUOUS
290
     0
370
    -3
390
5F09
  0
LAYER
  5
5F80
102
{ACAD_XDICTIONARY
360
60FC
102
}
330
5EFC
100
AcDbSymbolTableRecord
100
AcDbLayerTableRecord
  2
细实线
 70
     0
 62
     7
  6
CONTINUOUS
370
    -3
390
5F09
  0
LAYER
  5
776F
330
5EFC
100
AcDbSymbolTableRecord
100
AcDbLayerTableRecord
  2
标注线
 70
     0
 62
     3
  6
CONTINUOUS
370
     9
390
5F09
  0
LAYER
  5
8C94
102
{ACAD_XDICTIONARY
360
8C95
102
}
330
5EFC
100
AcDbSymbolTableRecord
100
AcDbLayerTableRecord
  2
粗实线
 70
     0
 62
     7
  6
CONTINUOUS
370
    35
390
5F09
  0
ENDTAB
  0
TABLE
  2
STYLE
  5
5EFD
330
0
100
AcDbSymbolTable
 70
     2
  0
STYLE
  5
5F57
330
5EFD
100
AcDbSymbolTableRecord
100
AcDbTextStyleTableRecord
  2
STANDARD
 70
     0
 40
0.0
 41
1.0
 50
0.0
 71
     0
 42
0.2
  3
arial.ttf
  4

1001
ACAD
1000
Arial
1071
       34
  0
ENDTAB
  0
TABLE
  2
VIEW
  5
5F00
330
0
100
AcDbSymbolTable
 70
     0
  0
ENDTAB
  0
TABLE
  2
UCS
  5
5F01
330
0
100
AcDbSymbolTable
 70
     0
  0
ENDTAB
  0
TABLE
  2
APPID
  5
5F03
330
0
100
AcDbSymbolTable
 70
    28
  0
APPID
  5
5F58
330
5F03
100
AcDbSymbolTableRecord
100
AcDbRegAppTableRecord
  2
ACAD
 70
     0
  0
APPID
  5
5F5F
330
5F03
100
AcDbSymbolTableRecord
100
AcDbRegAppTableRecord
  2
ACADANNOTATIVE
 70
     0
  0
APPID
  5
5F69
330
5F03
100
AcDbSymbolTableRecord
100
AcDbRegAppTableRecord
  2
ACAD_MLEADERVER
 70
     0
  0
APPID
  5
5F84
330
5F03
100
AcDbSymbolTableRecord
100
AcDbRegAppTableRecord
  2
ACAECLAYERSTANDARD
 70
     0
  0
APPID
  5
5F85
330
5F03
100
AcDbSymbolTableRecord
100
AcDbRegAppTableRecord
  2
ACAD_DSTYLE_DIMEXT_LENGTH
 70
     0
  0
APPID
  5
5F86
330
5F03
100
AcDbSymbolTableRecord
100
AcDbRegAppTableRecord
  2
ACAD_DSTYLE_DIMEXT_ENABLED
 70
     0
  0
APPID
  5
5F87
330
5F03
100
AcDbSymbolTableRecord
100
AcDbRegAppTableRecord
  2
ACAD_DSTYLE_DIMJOGGED_JOGA
 70
     0
  0
APPID
  5
5F88
330
5F03
100
AcDbSymbolTableRecord
100
AcDbRegAppTableRecord
  2
ACAD_DSTYLE_DIMARC_LENGTH_
 70
     0
  0
APPID
  5
5F89
330
5F03
100
AcDbSymbolTableRecord
100
AcDbRegAppTableRecord
  2
ACAD_PSEXT
 70
     0
  0
APPID
  5
5F8A
330
5F03
100
AcDbSymbolTableRecord
100
AcDbRegAppTableRecord
  2
MCAD_NO_VIS
 70
     0
  0
APPID
  5
5F8B
330
5F03
100
AcDbSymbolTableRecord
100
AcDbRegAppTableRecord
  2
ACAD_TEMP_GRAPHIC
 70
     0
  0
APPID
  5
5F8C
330
5F03
100
AcDbSymbolTableRecord
100
AcDbRegAppTableRecord
  2
AD_DRAW
 70
     0
  0
APPID
  5
5F8D
330
5F03
100
AcDbSymbolTableRecord
100
AcDbRegAppTableRecord
  2
ACATTRIBSERVICES
 70
     0
  0
APPID
  5
5F8E
330
5F03
100
AcDbSymbolTableRecord
100
AcDbRegAppTableRecord
  2
DESIGNERASSEMBLIES
 70
     0
  0
APPID
  5
5F8F
330
5F03
100
AcDbSymbolTableRecord
100
AcDbRegAppTableRecord
  2
ACADM_DIM_EDIT
 70
     0
  0
APPID
  5
5F90
330
5F03
100
AcDbSymbolTableRecord
100
AcDbRegAppTableRecord
  2
AMDT_DM_ADJ
 70
     0
  0
APPID
  5
5F91
330
5F03
100
AcDbSymbolTableRecord
100
AcDbRegAppTableRecord
  2
ACAD_DSTYLE_DIMJAG
 70
     0
  0
APPID
  5
5F92
330
5F03
100
AcDbSymbolTableRecord
100
AcDbRegAppTableRecord
  2
ACAD_DSTYLE_DIMBREAK
 70
     0
  0
APPID
  5
5F93
330
5F03
100
AcDbSymbolTableRecord
100
AcDbRegAppTableRecord
  2
ACAD_DSTYLE_DIMTALN
 70
     0
  0
APPID
  5
5F94
330
5F03
100
AcDbSymbolTableRecord
100
AcDbRegAppTableRecord
  2
GENIUS_GENODEF_13
 70
     0
  0
APPID
  5
5F95
330
5F03
100
AcDbSymbolTableRecord
100
AcDbRegAppTableRecord
  2
GENIUS_GENOBJ-N-FIL_13
 70
     0
  0
APPID
  5
5F96
330
5F03
100
AcDbSymbolTableRecord
100
AcDbRegAppTableRecord
  2
ACAD_EXEMPT_FROM_CAD_STANDARDS
 70
     0
  0
APPID
  5
5F97
330
5F03
100
AcDbSymbolTableRecord
100
AcDbRegAppTableRecord
  2
ACAD_DSTYLE_DIM_LINETYPE
 70
     0
  0
APPID
  5
5F98
330
5F03
100
AcDbSymbolTableRecord
100
AcDbRegAppTableRecord
  2
ACAD_DSTYLE_DIM_EXT1_LINETYPE
 70
     0
  0
APPID
  5
5F99
330
5F03
100
AcDbSymbolTableRecord
100
AcDbRegAppTableRecord
  2
ACAD_DSTYLE_DIM_EXT2_LINETYPE
 70
     0
  0
APPID
  5
5F9A
330
5F03
100
AcDbSymbolTableRecord
100
AcDbRegAppTableRecord
  2
ACAD_DSTYLE_DIMRADIAL_EXTENSION
 70
     0
  0
APPID
  5
6488
330
5F03
100
AcDbSymbolTableRecord
100
AcDbRegAppTableRecord
  2
AcadAnnoPO
 70
     0
  0
APPID
  5
7772
330
5F03
100
AcDbSymbolTableRecord
100
AcDbRegAppTableRecord
  2
ACAD_DSTYLE_DIMJOGGED_JOGANGLE_SYMBOL
 70
     0
  0
ENDTAB
  0
TABLE
  2
DIMSTYLE
  5
5F04
330
0
100
AcDbSymbolTable
 70
     8
100
AcDbDimStyleTable
 71
     2
340
5F9B
340
5F59
  0
DIMSTYLE
105
5F59
330
5F04
100
AcDbSymbolTableRecord
100
AcDbDimStyleTableRecord
  2
STANDARD
 70
     0
 41
0.65
 73
     0
 74
     0
140
0.65
176
     3
177
     3
178
     3
271
     3
272
     3
276
     2
277
     5
279
     2
284
     8
285
     8
286
     8
340
5F57
371
    13
372
    13
1001
ACAD_DSTYLE_DIMJAG
1070
   388
1040
1.5
1001
ACAD_DSTYLE_DIMTALN
1070
   392
1070
     0
1001
ACAD_DSTYLE_DIM_LINETYPE
1070
   380
1005
5F5E
1001
ACAD_DSTYLE_DIM_EXT1_LINETYPE
1070
   381
1005
5F5E
1001
ACAD_DSTYLE_DIM_EXT2_LINETYPE
1070
   382
1005
5F5E
  0
DIMSTYLE
105
5F9B
102
{ACAD_REACTORS
330
8F8A
102
}
330
5F04
100
AcDbSymbolTableRecord
100
AcDbDimStyleTableRecord
  2
副本STANDARD
 70
     0
  3
"
  4
"
 41
0.65
 42
0.88
 43
0.015
 44
0.32
 73
     0
 74
     0
 78
     8
140
0.65
143
0.03937
147
0.3
171
     1
172
     1
176
   256
177
   256
178
   256
271
     3
272
     3
274
     1
276
     2
277
     5
279
     2
284
     8
285
     8
286
     8
340
5F57
1001
ACAD_DSTYLE_DIMJAG
1070
   388
1040
1.5
1001
ACAD_DSTYLE_DIMTALN
1070
   392
1070
     0
  0
DIMSTYLE
105
848C
102
{ACAD_REACTORS
330
8DA3
330
8D8A
330
8D25
330
8D24
330
8D27
330
8D26
330
8DA6
102
}
330
5F04
100
AcDbSymbolTableRecord
100
AcDbDimStyleTableRecord
  2
副本Standard$0
 70
     0
  4
"
 41
16.0
 42
20.0
 44
7.0
 73
     0
 74
     0
 78
     8
 79
     2
140
20.0
143
0.03937
147
5.0
171
     3
172
     1
176
   256
177
   256
178
   256
179
     1
271
     1
272
     1
273
     7
274
     3
278
    44
340
5F57
1001
ACAD_DSTYLE_DIMBREAK
1070
   391
1040
0.125
1001
ACAD_DSTYLE_DIMJAG
1070
   388
1040
1.5
  0
ENDTAB
  0
TABLE
  2
BLOCK_RECORD
  5
5EFB
330
0
100
AcDbSymbolTable
 70
    42
  0
BLOCK_RECORD
  5
5F6E
102
{ACAD_XDICTIONARY
360
654F
102
}
330
5EFB
100
AcDbSymbolTableRecord
100
AcDbBlockTableRecord
  2
*Model_Space
340
5F71
  0
BLOCK_RECORD
  5
5F6A
330
5EFB
100
AcDbSymbolTableRecord
100
AcDbBlockTableRecord
  2
*Paper_Space
340
5F6D
  0
BLOCK_RECORD
  5
8DA8
330
5EFB
100
AcDbSymbolTableRecord
100
AcDbBlockTableRecord
  2
*D30
340
0
  0
BLOCK_RECORD
  5
8DB6
330
5EFB
100
AcDbSymbolTableRecord
100
AcDbBlockTableRecord
  2
*D31
340
0
  0
BLOCK_RECORD
  5
8DC4
330
5EFB
100
AcDbSymbolTableRecord
100
AcDbBlockTableRecord
  2
*D32
340
0
  0
BLOCK_RECORD
  5
8DD3
330
5EFB
100
AcDbSymbolTableRecord
100
AcDbBlockTableRecord
  2
*D33
340
0
  0
BLOCK_RECORD
  5
8DF0
330
5EFB
100
AcDbSymbolTableRecord
100
AcDbBlockTableRecord
  2
*D35
340
0
  0
BLOCK_RECORD
  5
8E0C
330
5EFB
100
AcDbSymbolTableRecord
100
AcDbBlockTableRecord
  2
*D37
340
0
  0
BLOCK_RECORD
  5
8E7F
330
5EFB
100
AcDbSymbolTableRecord
100
AcDbBlockTableRecord
  2
*D40
340
0
  0
BLOCK_RECORD
  5
8F8B
330
5EFB
100
AcDbSymbolTableRecord
100
AcDbBlockTableRecord
  2
*D41
340
0
  0
ENDTAB
  0
ENDSEC
  0
SECTION
  2
BLOCKS
  0
BLOCK
  5
5F6F
330
5F6E
100
AcDbEntity
  8
0
100
AcDbBlockBegin
  2
*Model_Space
 70
     0
 10
0.0
 20
0.0
 30
0.0
  3
*Model_Space
  1

  0
ENDBLK
  5
5F70
330
5F6E
100
AcDbEntity
  8
0
100
AcDbBlockEnd
  0
BLOCK
  5
5F6B
330
5F6A
100
AcDbEntity
 67
     1
  8
0
100
AcDbBlockBegin
  2
*Paper_Space
 70
     0
 10
0.0
 20
0.0
 30
0.0
  3
*Paper_Space
  1

  0
ENDBLK
  5
5F6C
330
5F6A
100
AcDbEntity
 67
     1
  8
0
100
AcDbBlockEnd
  0
BLOCK
  5
8DA9
330
8DA8
100
AcDbEntity
  8
0
100
AcDbBlockBegin
  2
*D30
 70
     1
 10
0.0
 20
0.0
 30
0.0
  3
*D30
  1

  0
LINE
  5
8F3B
330
8DA8
100
AcDbEntity
  8
标注线
 48
5.0
370
    -2
100
AcDbLine
 10
1486.645515044163
 20
156.9509209049078
 30
0.0
 11
1489.670240588921
 21
156.9509209049078
 31
0.0
  0
LINE
  5
8F3C
330
8DA8
100
AcDbEntity
  8
标注线
 48
5.0
370
    -2
100
AcDbLine
 10
1486.645515044163
 20
140.4509539048971
 30
0.0
 11
1489.670240588921
 21
140.4509539048971
 31
0.0
  0
LINE
  5
8F3D
330
8DA8
100
AcDbEntity
  8
标注线
 48
5.0
370
    -2
100
AcDbLine
 10
1489.350240588922
 20
156.3009209049077
 30
0.0
 11
1489.350240588922
 21
150.3537000242749
 31
0.0
  0
LINE
  5
8F3E
330
8DA8
100
AcDbEntity
  8
标注线
 48
5.0
370
    -2
100
AcDbLine
 10
1489.350240588922
 20
141.1009539048971
 30
0.0
 11
1489.350240588922
 21
147.04817478553
 31
0.0
  0
MTEXT
  5
8F3F
330
8DA8
100
AcDbEntity
  8
标注线
 48
5.0
100
AcDbMText
 10
1489.350240588922
 20
148.7009374049027
 30
0.0
 40
0.65
 41
0.0
 71
     5
 72
     1
  1
\A1;16 1/2"
 11
0.0000000000000001
 21
1.0
 31
0.0
 73
     1
 44
1.0
1001
ACAD
1000
MTEXTBEGIN
1070
    73
1070
     1
1070
    44
1040
1.0
1070
    74
1070
     0
1000
MTEXTEND
  0
SOLID
  5
8F40
330
8DA8
100
AcDbEntity
  8
标注线
 48
5.0
100
AcDbTrace
 10
1489.241907255588
 20
156.3009209049077
 30
0.0
 11
1489.458573922255
 21
156.3009209049077
 31
0.0
 12
1489.350240588922
 22
156.9509209049078
 32
0.0
 13
1489.350240588922
 23
156.9509209049078
 33
0.0
  0
SOLID
  5
8F41
330
8DA8
100
AcDbEntity
  8
标注线
 48
5.0
100
AcDbTrace
 10
1489.241907255588
 20
141.1009539048971
 30
0.0
 11
1489.458573922255
 21
141.1009539048971
 31
0.0
 12
1489.350240588922
 22
140.4509539048971
 32
0.0
 13
1489.350240588922
 23
140.4509539048971
 33
0.0
  0
POINT
  5
8F42
330
8DA8
100
AcDbEntity
  8
DEFPOINTS
 62
     0
 48
5.0
100
AcDbPoint
 10
1485.765515044163
 20
156.9509209049078
 30
0.0
  0
POINT
  5
8F43
330
8DA8
100
AcDbEntity
  8
DEFPOINTS
 62
     0
 48
5.0
100
AcDbPoint
 10
1485.765515044163
 20
140.4509539048971
 30
0.0
  0
POINT
  5
8F44
330
8DA8
100
AcDbEntity
  8
DEFPOINTS
 62
     0
 48
5.0
100
AcDbPoint
 10
1489.350240588922
 20
140.4509539048971
 30
0.0
  0
ENDBLK
  5
8DAA
330
8DA8
100
AcDbEntity
  8
0
100
AcDbBlockEnd
  0
BLOCK
  5
8DB7
330
8DB6
100
AcDbEntity
  8
0
100
AcDbBlockBegin
  2
*D31
 70
     1
 10
0.0
 20
0.0
 30
0.0
  3
*D31
  1

  0
LINE
  5
8F45
330
8DB6
100
AcDbEntity
  8
标注线
 48
5.0
370
    -2
100
AcDbLine
 10
1487.073528868264
 20
157.9509189049216
 30
0.0
 11
1491.534890439331
 21
157.9509189049216
 31
0.0
  0
LINE
  5
8F46
330
8DB6
100
AcDbEntity
  8
标注线
 48
5.0
370
    -2
100
AcDbLine
 10
1487.073528868264
 20
139.4509559049123
 30
0.0
 11
1491.534890439331
 21
139.4509559049123
 31
0.0
  0
LINE
  5
8F47
330
8DB6
100
AcDbEntity
  8
标注线
 48
5.0
370
    -2
100
AcDbLine
 10
1491.214890439331
 20
157.3009189049216
 30
0.0
 11
1491.214890439331
 21
150.3537000242894
 31
0.0
  0
LINE
  5
8F48
330
8DB6
100
AcDbEntity
  8
标注线
 48
5.0
370
    -2
100
AcDbLine
 10
1491.214890439331
 20
140.1009559049123
 30
0.0
 11
1491.214890439331
 21
147.0481747855445
 31
0.0
  0
MTEXT
  5
8F49
330
8DB6
100
AcDbEntity
  8
标注线
 48
5.0
100
AcDbMText
 10
1491.214890439331
 20
148.7009374049172
 30
0.0
 40
0.65
 41
0.0
 71
     5
 72
     1
  1
\A1;18 1/2"
 11
0.0000000000000001
 21
1.0
 31
0.0
 73
     1
 44
1.0
1001
ACAD
1000
MTEXTBEGIN
1070
    73
1070
     1
1070
    44
1040
1.0
1070
    74
1070
     0
1000
MTEXTEND
  0
SOLID
  5
8F4A
330
8DB6
100
AcDbEntity
  8
标注线
 48
5.0
100
AcDbTrace
 10
1491.106557105998
 20
157.3009189049216
 30
0.0
 11
1491.323223772664
 21
157.3009189049216
 31
0.0
 12
1491.214890439331
 22
157.9509189049216
 32
0.0
 13
1491.214890439331
 23
157.9509189049216
 33
0.0
  0
SOLID
  5
8F4B
330
8DB6
100
AcDbEntity
  8
标注线
 48
5.0
100
AcDbTrace
 10
1491.106557105998
 20
140.1009559049123
 30
0.0
 11
1491.323223772664
 21
140.1009559049123
 31
0.0
 12
1491.214890439331
 22
139.4509559049123
 32
0.0
 13
1491.214890439331
 23
139.4509559049123
 33
0.0
  0
POINT
  5
8F4C
330
8DB6
100
AcDbEntity
  8
DEFPOINTS
 62
     0
 48
5.0
100
AcDbPoint
 10
1486.193528868264
 20
157.9509189049216
 30
0.0
  0
POINT
  5
8F4D
330
8DB6
100
AcDbEntity
  8
DEFPOINTS
 62
     0
 48
5.0
100
AcDbPoint
 10
1486.193528868264
 20
139.4509559049123
 30
0.0
  0
POINT
  5
8F4E
330
8DB6
100
AcDbEntity
  8
DEFPOINTS
 62
     0
 48
5.0
100
AcDbPoint
 10
1491.214890439331
 20
139.4509559049123
 30
0.0
  0
ENDBLK
  5
8DB8
330
8DB6
100
AcDbEntity
  8
0
100
AcDbBlockEnd
  0
BLOCK
  5
8DC5
330
8DC4
100
AcDbEntity
  8
0
100
AcDbBlockBegin
  2
*D32
 70
     1
 10
0.0
 20
0.0
 30
0.0
  3
*D32
  1

  0
LINE
  5
8F4F
330
8DC4
100
AcDbEntity
  8
标注线
 48
5.0
370
    -2
100
AcDbLine
 10
1459.159269044181
 20
139.5366400808111
 30
0.0
 11
1459.159269044181
 21
135.1418663716041
 31
0.0
  0
LINE
  5
8F50
330
8DC4
100
AcDbEntity
  8
标注线
 48
5.0
370
    -2
100
AcDbLine
 10
1487.159213044163
 20
139.5366400808111
 30
0.0
 11
1487.159213044163
 21
135.1418663716041
 31
0.0
  0
LINE
  5
8F51
330
8DC4
100
AcDbEntity
  8
标注线
 48
5.0
370
    -2
100
AcDbLine
 10
1459.809269044181
 20
135.461866371604
 30
0.0
 11
1472.227641453449
 21
135.461866371604
 31
0.0
  0
LINE
  5
8F52
330
8DC4
100
AcDbEntity
  8
标注线
 48
5.0
370
    -2
100
AcDbLine
 10
1486.509213044162
 20
135.461866371604
 30
0.0
 11
1474.090840634895
 21
135.461866371604
 31
0.0
  0
SOLID
  5
8F53
330
8DC4
100
AcDbEntity
  8
标注线
 48
5.0
100
AcDbTrace
 10
1459.809269044181
 20
135.5701997049373
 30
0.0
 11
1459.809269044181
 21
135.3535330382707
 31
0.0
 12
1459.159269044181
 22
135.461866371604
 32
0.0
 13
1459.159269044181
 23
135.461866371604
 33
0.0
  0
SOLID
  5
8F54
330
8DC4
100
AcDbEntity
  8
标注线
 48
5.0
100
AcDbTrace
 10
1486.509213044162
 20
135.5701997049373
 30
0.0
 11
1486.509213044162
 21
135.3535330382707
 31
0.0
 12
1487.159213044163
 22
135.461866371604
 32
0.0
 13
1487.159213044163
 23
135.461866371604
 33
0.0
  0
MTEXT
  5
8F55
330
8DC4
100
AcDbEntity
  8
标注线
 48
5.0
100
AcDbMText
 10
1473.159241044172
 20
135.461866371604
 30
0.0
 40
0.65
 41
0.0
 71
     5
 72
     1
  1
\A1;28"
 73
     1
 44
1.0
1001
ACAD
1000
MTEXTBEGIN
1070
    73
1070
     1
1070
    44
1040
1.0
1070
    74
1070
     0
1000
MTEXTEND
  0
POINT
  5
8F56
330
8DC4
100
AcDbEntity
  8
DEFPOINTS
 62
     0
 48
5.0
100
AcDbPoint
 10
1459.159269044181
 20
140.4166400808111
 30
0.0
  0
POINT
  5
8F57
330
8DC4
100
AcDbEntity
  8
DEFPOINTS
 62
     0
 48
5.0
100
AcDbPoint
 10
1487.159213044163
 20
140.4166400808111
 30
0.0
  0
POINT
  5
8F58
330
8DC4
100
AcDbEntity
  8
DEFPOINTS
 62
     0
 48
5.0
100
AcDbPoint
 10
1487.159213044163
 20
135.461866371604
 30
0.0
  0
ENDBLK
  5
8DC6
330
8DC4
100
AcDbEntity
  8
0
100
AcDbBlockEnd
  0
BLOCK
  5
8DD4
330
8DD3
100
AcDbEntity
  8
0
100
AcDbBlockBegin
  2
*D33
 70
     1
 10
0.0
 20
0.0
 30
0.0
  3
*D33
  1

  0
LINE
  5
8F59
330
8DD3
100
AcDbEntity
  8
标注线
 48
5.0
370
    -2
100
AcDbLine
 10
1460.159267044166
 20
139.9646539049122
 30
0.0
 11
1460.159267044166
 21
137.0081851408914
 31
0.0
  0
LINE
  5
8F5A
330
8DD3
100
AcDbEntity
  8
标注线
 48
5.0
370
    -2
100
AcDbLine
 10
1486.159215044178
 20
139.9646539049122
 30
0.0
 11
1486.159215044178
 21
137.0081851408914
 31
0.0
  0
LINE
  5
8F5B
330
8DD3
100
AcDbEntity
  8
标注线
 48
5.0
370
    -2
100
AcDbLine
 10
1460.809267044166
 20
137.3281851408914
 30
0.0
 11
1472.227641453449
 21
137.3281851408914
 31
0.0
  0
LINE
  5
8F5C
330
8DD3
100
AcDbEntity
  8
标注线
 48
5.0
370
    -2
100
AcDbLine
 10
1485.509215044178
 20
137.3281851408914
 30
0.0
 11
1474.090840634895
 21
137.3281851408914
 31
0.0
  0
SOLID
  5
8F5D
330
8DD3
100
AcDbEntity
  8
标注线
 48
5.0
100
AcDbTrace
 10
1460.809267044166
 20
137.4365184742247
 30
0.0
 11
1460.809267044166
 21
137.219851807558
 31
0.0
 12
1460.159267044166
 22
137.3281851408914
 32
0.0
 13
1460.159267044166
 23
137.3281851408914
 33
0.0
  0
SOLID
  5
8F5E
330
8DD3
100
AcDbEntity
  8
标注线
 48
5.0
100
AcDbTrace
 10
1485.509215044178
 20
137.4365184742247
 30
0.0
 11
1485.509215044178
 21
137.219851807558
 31
0.0
 12
1486.159215044178
 22
137.3281851408914
 32
0.0
 13
1486.159215044178
 23
137.3281851408914
 33
0.0
  0
MTEXT
  5
8F5F
330
8DD3
100
AcDbEntity
  8
标注线
 48
5.0
100
AcDbMText
 10
1473.159241044172
 20
137.3281851408914
 30
0.0
 40
0.65
 41
0.0
 71
     5
 72
     1
  1
\A1;26"
 73
     1
 44
1.0
1001
ACAD
1000
MTEXTBEGIN
1070
    73
1070
     1
1070
    44
1040
1.0
1070
    74
1070
     0
1000
MTEXTEND
  0
POINT
  5
8F60
330
8DD3
100
AcDbEntity
  8
DEFPOINTS
 62
     0
 48
5.0
100
AcDbPoint
 10
1460.159267044166
 20
140.8446539049122
 30
0.0
  0
POINT
  5
8F61
330
8DD3
100
AcDbEntity
  8
DEFPOINTS
 62
     0
 48
5.0
100
AcDbPoint
 10
1486.159215044178
 20
140.8446539049122
 30
0.0
  0
POINT
  5
8F62
330
8DD3
100
AcDbEntity
  8
DEFPOINTS
 62
     0
 48
5.0
100
AcDbPoint
 10
1486.159215044178
 20
137.3281851408914
 30
0.0
  0
ENDBLK
  5
8DD5
330
8DD3
100
AcDbEntity
  8
0
100
AcDbBlockEnd
  0
BLOCK
  5
8DF1
330
8DF0
100
AcDbEntity
  8
0
100
AcDbBlockBegin
  2
*D35
 70
     1
 10
0.0
 20
0.0
 30
0.0
  3
*D35
  1

  0
LINE
  5
8EE0
330
8DF0
100
AcDbEntity
  8
标注线
 48
5.0
370
    -2
100
AcDbLine
 10
1488.039213044163
 20
176.4695699277199
 30
0.0
 11
1489.524957064683
 21
176.4695699277199
 31
0.0
  0
LINE
  5
8EE1
330
8DF0
100
AcDbEntity
  8
标注线
 48
5.0
370
    -2
100
AcDbLine
 10
1488.926857770247
 20
169.4706017988192
 30
0.0
 11
1489.524957064683
 21
169.4706017988192
 31
0.0
  0
LINE
  5
8EE2
330
8DF0
100
AcDbEntity
  8
标注线
 48
5.0
370
    -2
100
AcDbLine
 10
1489.204957064683
 20
175.8195699277199
 30
0.0
 11
1489.204957064683
 21
173.6409760406229
 31
0.0
  0
LINE
  5
8EE3
330
8DF0
100
AcDbEntity
  8
标注线
 48
5.0
370
    -2
100
AcDbLine
 10
1489.204957064683
 20
170.1206017988192
 30
0.0
 11
1489.204957064683
 21
172.2991956859162
 31
0.0
  0
MTEXT
  5
8EE4
330
8DF0
100
AcDbEntity
  8
标注线
 48
5.0
100
AcDbMText
 10
1489.204957064683
 20
172.9700858632698
 30
0.0
 40
0.65
 41
0.0
 71
     5
 72
     1
  1
\A1;7"
 11
0.0000000000000001
 21
1.0
 31
0.0
 73
     1
 44
1.0
1001
ACAD
1000
MTEXTBEGIN
1070
    73
1070
     1
1070
    44
1040
1.0
1070
    74
1070
     0
1000
MTEXTEND
  0
SOLID
  5
8EE5
330
8DF0
100
AcDbEntity
  8
标注线
 48
5.0
100
AcDbTrace
 10
1489.09662373135
 20
175.8195699277199
 30
0.0
 11
1489.313290398017
 21
175.8195699277199
 31
0.0
 12
1489.204957064683
 22
176.4695699277199
 32
0.0
 13
1489.204957064683
 23
176.4695699277199
 33
0.0
  0
SOLID
  5
8EE6
330
8DF0
100
AcDbEntity
  8
标注线
 48
5.0
100
AcDbTrace
 10
1489.09662373135
 20
170.1206017988192
 30
0.0
 11
1489.313290398017
 21
170.1206017988192
 31
0.0
 12
1489.204957064683
 22
169.4706017988192
 32
0.0
 13
1489.204957064683
 23
169.4706017988192
 33
0.0
  0
POINT
  5
8EE7
330
8DF0
100
AcDbEntity
  8
DEFPOINTS
 62
     0
 48
5.0
100
AcDbPoint
 10
1487.159213044163
 20
176.4695699277199
 30
0.0
  0
POINT
  5
8EE8
330
8DF0
100
AcDbEntity
  8
DEFPOINTS
 62
     0
 48
5.0
100
AcDbPoint
 10
1488.046857770247
 20
169.4706017988192
 30
0.0
  0
POINT
  5
8EE9
330
8DF0
100
AcDbEntity
  8
DEFPOINTS
 62
     0
 48
5.0
100
AcDbPoint
 10
1489.204957064683
 20
169.4706017988192
 30
0.0
  0
ENDBLK
  5
8DF2
330
8DF0
100
AcDbEntity
  8
0
100
AcDbBlockEnd
  0
BLOCK
  5
8E0D
330
8E0C
100
AcDbEntity
  8
0
100
AcDbBlockBegin
  2
*D37
 70
     1
 10
0.0
 20
0.0
 30
0.0
  3
*D37
  1

  0
LINE
  5
8F31
330
8E0C
100
AcDbEntity
  8
标注线
 48
5.0
370
    -2
100
AcDbLine
 10
1486.645515044308
 20
122.7885927627194
 30
0.0
 11
1488.787854612871
 21
122.7885927627194
 31
0.0
  0
LINE
  5
8F32
330
8E0C
100
AcDbEntity
  8
标注线
 48
5.0
370
    -2
100
AcDbLine
 10
1486.645515044308
 20
106.1311457627143
 30
0.0
 11
1488.787854612871
 21
106.1311457627143
 31
0.0
  0
LINE
  5
8F33
330
8E0C
100
AcDbEntity
  8
标注线
 48
5.0
370
    -2
100
AcDbLine
 10
1488.467854612872
 20
122.1385927627194
 30
0.0
 11
1488.467854612872
 21
116.1126318820893
 31
0.0
  0
LINE
  5
8F34
330
8E0C
100
AcDbEntity
  8
标注线
 48
5.0
370
    -2
100
AcDbLine
 10
1488.467854612872
 20
106.7811457627144
 30
0.0
 11
1488.467854612872
 21
112.8071066433444
 31
0.0
  0
SOLID
  5
8F35
330
8E0C
100
AcDbEntity
  8
标注线
 48
5.0
100
AcDbTrace
 10
1488.359521279538
 20
122.1385927627194
 30
0.0
 11
1488.576187946205
 21
122.1385927627194
 31
0.0
 12
1488.467854612872
 22
122.7885927627194
 32
0.0
 13
1488.467854612872
 23
122.7885927627194
 33
0.0
  0
SOLID
  5
8F36
330
8E0C
100
AcDbEntity
  8
标注线
 48
5.0
100
AcDbTrace
 10
1488.359521279538
 20
106.7811457627144
 30
0.0
 11
1488.576187946205
 21
106.7811457627144
 31
0.0
 12
1488.467854612872
 22
106.1311457627143
 32
0.0
 13
1488.467854612872
 23
106.1311457627143
 33
0.0
  0
MTEXT
  5
8F37
330
8E0C
100
AcDbEntity
  8
标注线
 48
5.0
100
AcDbMText
 10
1488.467854612872
 20
114.4598692627171
 30
0.0
 40
0.65
 41
0.0
 71
     5
 72
     1
  1
\A1;16 5/8"
 11
0.0000000000000001
 21
1.0
 31
0.0
 73
     1
 44
1.0
1001
ACAD
1000
MTEXTBEGIN
1070
    73
1070
     1
1070
    44
1040
1.0
1070
    74
1070
     0
1000
MTEXTEND
  0
POINT
  5
8F38
330
8E0C
100
AcDbEntity
  8
DEFPOINTS
 62
     0
 48
5.0
100
AcDbPoint
 10
1485.765515044308
 20
122.7885927627194
 30
0.0
  0
POINT
  5
8F39
330
8E0C
100
AcDbEntity
  8
DEFPOINTS
 62
     0
 48
5.0
100
AcDbPoint
 10
1485.765515044308
 20
106.1311457627143
 30
0.0
  0
POINT
  5
8F3A
330
8E0C
100
AcDbEntity
  8
DEFPOINTS
 62
     0
 48
5.0
100
AcDbPoint
 10
1488.467854612872
 20
106.1311457627143
 30
0.0
  0
ENDBLK
  5
8E0E
330
8E0C
100
AcDbEntity
  8
0
100
AcDbBlockEnd
  0
BLOCK
  5
8E80
330
8E7F
100
AcDbEntity
  8
0
100
AcDbBlockBegin
  2
*D40
 70
     1
 10
0.0
 20
0.0
 30
0.0
  3
*D40
  1

  0
LINE
  5
8F27
330
8E7F
100
AcDbEntity
  8
标注线
 48
5.0
370
    -2
100
AcDbLine
 10
1460.080527044286
 20
105.7235857627266
 30
0.0
 11
1460.080527044286
 21
103.5804974192921
 31
0.0
  0
LINE
  5
8F28
330
8E7F
100
AcDbEntity
  8
标注线
 48
5.0
370
    -2
100
AcDbLine
 10
1486.237955044291
 20
105.7235857627266
 30
0.0
 11
1486.237955044291
 21
103.5804974192921
 31
0.0
  0
LINE
  5
8F29
330
8E7F
100
AcDbEntity
  8
标注线
 48
5.0
370
    -2
100
AcDbLine
 10
1460.730527044286
 20
103.9004974192921
 30
0.0
 11
1471.470342681396
 21
103.9004974192921
 31
0.0
  0
LINE
  5
8F2A
330
8E7F
100
AcDbEntity
  8
标注线
 48
5.0
370
    -2
100
AcDbLine
 10
1485.587955044291
 20
103.9004974192921
 30
0.0
 11
1474.848139407181
 21
103.9004974192921
 31
0.0
  0
SOLID
  5
8F2B
330
8E7F
100
AcDbEntity
  8
标注线
 48
5.0
100
AcDbTrace
 10
1460.730527044286
 20
104.0088307526255
 30
0.0
 11
1460.730527044286
 21
103.7921640859588
 31
0.0
 12
1460.080527044286
 22
103.9004974192921
 32
0.0
 13
1460.080527044286
 23
103.9004974192921
 33
0.0
  0
SOLID
  5
8F2C
330
8E7F
100
AcDbEntity
  8
标注线
 48
5.0
100
AcDbTrace
 10
1485.587955044291
 20
104.0088307526255
 30
0.0
 11
1485.587955044291
 21
103.7921640859588
 31
0.0
 12
1486.237955044291
 22
103.9004974192921
 32
0.0
 13
1486.237955044291
 23
103.9004974192921
 33
0.0
  0
MTEXT
  5
8F2D
330
8E7F
100
AcDbEntity
  8
标注线
 48
5.0
100
AcDbMText
 10
1473.159241044288
 20
103.9004974192921
 30
0.0
 40
0.65
 41
0.0
 71
     5
 72
     1
  1
\A1;26 1/8"
 73
     1
 44
1.0
1001
ACAD
1000
MTEXTBEGIN
1070
    73
1070
     1
1070
    44
1040
1.0
1070
    74
1070
     0
1000
MTEXTEND
  0
POINT
  5
8F2E
330
8E7F
100
AcDbEntity
  8
DEFPOINTS
 62
     0
 48
5.0
100
AcDbPoint
 10
1460.080527044286
 20
106.6035857627266
 30
0.0
  0
POINT
  5
8F2F
330
8E7F
100
AcDbEntity
  8
DEFPOINTS
 62
     0
 48
5.0
100
AcDbPoint
 10
1486.237955044291
 20
106.6035857627266
 30
0.0
  0
POINT
  5
8F30
330
8E7F
100
AcDbEntity
  8
DEFPOINTS
 62
     0
 48
5.0
100
AcDbPoint
 10
1486.237955044291
 20
103.9004974192921
 30
0.0
  0
ENDBLK
  5
8E81
330
8E7F
100
AcDbEntity
  8
0
100
AcDbBlockEnd
  0
BLOCK
  5
8F8C
330
8F8B
100
AcDbEntity
  8
0
100
AcDbBlockBegin
  2
*D41
 70
     1
 10
0.0
 20
0.0
 30
0.0
  3
*D41
  1

  0
LINE
  5
8F8E
330
8F8B
100
AcDbEntity
  8
标注线
  6
Continuous
370
    -2
100
AcDbLine
 10
1459.599940317602
 20
106.0106172881828
 30
0.0
 11
1459.048046788903
 21
105.6672318881137
 31
0.0
  0
MTEXT
  5
8F8F
330
8F8B
100
AcDbEntity
  8
标注线
100
AcDbMText
 10
1461.286020716441
 20
107.4974494958893
 30
0.0
 40
0.65
 41
0.0
 71
     5
 72
     1
  1
\A1;R1/2"
 11
0.8490669672286003
 21
0.528285230875544
 31
0.0
 73
     1
 44
1.0
1001
ACAD
1000
MTEXTBEGIN
1070
    73
1070
     1
1070
    44
1040
1.0
1070
    74
1070
     0
1000
MTEXTEND
  0
LINE
  5
8F90
330
8F8B
100
AcDbEntity
  8
标注线
  6
Continuous
370
    -2
100
AcDbLine
 10
1460.552967044297
 20
106.6035857627264
 30
0.0
 11
1460.151833846301
 21
106.3540026882518
 31
0.0
  0
SOLID
  5
8F91
330
8F8B
100
AcDbEntity
  8
标注线
100
AcDbTrace
 10
1459.54270941759
 20
106.1025995429659
 30
0.0
 11
1459.657171217613
 21
105.9186350333997
 31
0.0
 12
1460.151833846301
 22
106.3540026882518
 32
0.0
 13
1460.151833846301
 23
106.3540026882518
 33
0.0
  0
POINT
  5
8F92
330
8F8B
100
AcDbEntity
  8
DEFPOINTS
 62
     0
100
AcDbPoint
 10
1460.151833846301
 20
106.3540026882518
 30
0.0
  0
POINT
  5
8F93
330
8F8B
100
AcDbEntity
  8
DEFPOINTS
 62
     0
100
AcDbPoint
 10
1460.552967044297
 20
106.6035857627264
 30
0.0
  0
ENDBLK
  5
8F8D
330
8F8B
100
AcDbEntity
  8
0
100
AcDbBlockEnd
  0
ENDSEC
  0
SECTION
  2
ENTITIES
  0
DIMENSION
  5
8D24
330
5F6E
100
AcDbEntity
  8
标注线
 48
5.0
100
AcDbDimension
  2
*D30
 10
1489.350240588922
 20
140.4509539048971
 30
0.0
 11
1489.350240588922
 21
148.7009374049027
 31
0.0
 70
   160
 71
     5
 42
16.49996700001065
  3
副本Standard$0
100
AcDbAlignedDimension
 13
1485.765515044163
 23
156.9509209049078
 33
0.0
 14
1485.765515044163
 24
140.4509539048971
 34
0.0
 50
90.0
100
AcDbRotatedDimension
1001
ACAD
1000
DSTYLE
1002
{
1070
     3
1000
"
1070
    41
1040
0.65
1070
    42
1040
0.88
1070
    43
1040
0.015
1070
    44
1040
0.32
1070
    79
1070
     0
1070
   140
1040
0.65
1070
   147
1040
0.3
1070
   171
1070
     1
1070
   179
1070
     0
1070
   271
1070
     3
1070
   272
1070
     3
1070
   273
1070
     2
1070
   274
1070
     1
1070
   276
1070
     2
1070
   277
1070
     5
1070
   278
1070
    46
1070
   279
1070
     2
1070
   284
1070
     8
1070
   285
1070
     8
1070
   286
1070
     8
1002
}
  0
DIMENSION
  5
8D25
330
5F6E
100
AcDbEntity
  8
标注线
 48
5.0
100
AcDbDimension
  2
*D31
 10
1491.214890439331
 20
139.4509559049123
 30
0.0
 11
1491.214890439331
 21
148.7009374049172
 31
0.0
 70
   160
 71
     5
 42
18.4999630000093
  3
副本Standard$0
100
AcDbAlignedDimension
 13
1486.193528868264
 23
157.9509189049216
 33
0.0
 14
1486.193528868264
 24
139.4509559049123
 34
0.0
 50
90.0
100
AcDbRotatedDimension
1001
ACAD
1000
DSTYLE
1002
{
1070
     3
1000
"
1070
    41
1040
0.65
1070
    42
1040
0.88
1070
    43
1040
0.015
1070
    44
1040
0.32
1070
    79
1070
     0
1070
   140
1040
0.65
1070
   147
1040
0.3
1070
   171
1070
     1
1070
   179
1070
     0
1070
   271
1070
     3
1070
   272
1070
     3
1070
   273
1070
     2
1070
   274
1070
     1
1070
   276
1070
     2
1070
   277
1070
     5
1070
   278
1070
    46
1070
   279
1070
     2
1070
   284
1070
     8
1070
   285
1070
     8
1070
   286
1070
     8
1002
}
  0
DIMENSION
  5
8D26
330
5F6E
100
AcDbEntity
  8
标注线
 48
5.0
100
AcDbDimension
  2
*D32
 10
1487.159213044163
 20
135.461866371604
 30
0.0
 11
1473.159241044172
 21
135.461866371604
 31
0.0
 70
    32
 71
     5
 42
27.99994399998104
  3
副本Standard$0
100
AcDbAlignedDimension
 13
1459.159269044181
 23
140.4166400808111
 33
0.0
 14
1487.159213044163
 24
140.4166400808111
 34
0.0
100
AcDbRotatedDimension
1001
ACAD
1000
DSTYLE
1002
{
1070
     3
1000
"
1070
    41
1040
0.65
1070
    42
1040
0.88
1070
    43
1040
0.015
1070
    44
1040
0.32
1070
    79
1070
     0
1070
   140
1040
0.65
1070
   147
1040
0.3
1070
   171
1070
     1
1070
   179
1070
     0
1070
   271
1070
     3
1070
   272
1070
     3
1070
   273
1070
     2
1070
   274
1070
     1
1070
   276
1070
     2
1070
   277
1070
     5
1070
   278
1070
    46
1070
   279
1070
     2
1070
   284
1070
     8
1070
   285
1070
     8
1070
   286
1070
     8
1002
}
  0
DIMENSION
  5
8D27
330
5F6E
100
AcDbEntity
  8
标注线
 48
5.0
100
AcDbDimension
  2
*D33
 10
1486.159215044178
 20
137.3281851408914
 30
0.0
 11
1473.159241044172
 21
137.3281851408914
 31
0.0
 70
    32
 71
     5
 42
25.9999480000115
  3
副本Standard$0
100
AcDbAlignedDimension
 13
1460.159267044166
 23
140.8446539049122
 33
0.0
 14
1486.159215044178
 24
140.8446539049122
 34
0.0
100
AcDbRotatedDimension
1001
ACAD
1000
DSTYLE
1002
{
1070
     3
1000
"
1070
    41
1040
0.65
1070
    42
1040
0.88
1070
    43
1040
0.015
1070
    44
1040
0.32
1070
    79
1070
     0
1070
   140
1040
0.65
1070
   147
1040
0.3
1070
   171
1070
     1
1070
   179
1070
     0
1070
   271
1070
     3
1070
   272
1070
     3
1070
   273
1070
     2
1070
   274
1070
     1
1070
   276
1070
     2
1070
   277
1070
     5
1070
   278
1070
    46
1070
   279
1070
     2
1070
   284
1070
     8
1070
   285
1070
     8
1070
   286
1070
     8
1002
}
  0
LINE
  5
8D29
330
5F6E
100
AcDbEntity
  8
中心线
 48
2.5
100
AcDbLine
 10
1473.159241044172
 20
138.9103973360992
 30
0.0
 11
1473.159241044172
 21
158.4758487950106
 31
0.0
  0
LINE
  5
8D2A
330
5F6E
100
AcDbEntity
  8
中心线
 48
2.5
100
AcDbLine
 10
1470.210137981956
 20
151.7304589049103
 30
0.0
 11
1476.108344106359
 21
151.7304589049103
 31
0.0
  0
LINE
  5
8D2B
330
5F6E
100
AcDbEntity
  8
0
100
AcDbLine
 10
1459.159269044181
 20
140.4166400808111
 30
0.0
 11
1459.159269044181
 21
156.9852347289937
 31
0.0
  0
LINE
  5
8D2C
330
5F6E
100
AcDbEntity
  8
0
100
AcDbLine
 10
1460.159267044166
 20
156.5572209049218
 30
0.0
 11
1460.159267044166
 21
140.8446539049122
 31
0.0
  0
LINE
  5
8D2D
330
5F6E
100
AcDbEntity
  8
0
100
AcDbLine
 10
1460.552967044181
 20
140.4509539048971
 30
0.0
 11
1485.765515044163
 21
140.4509539048971
 31
0.0
  0
LINE
  5
8D2E
330
5F6E
100
AcDbEntity
  8
0
100
AcDbLine
 10
1485.765515044163
 20
156.9509209049078
 30
0.0
 11
1460.552967044181
 21
156.9509209049078
 31
0.0
  0
ARC
  5
8D2F
330
5F6E
100
AcDbEntity
  8
0
100
AcDbCircle
 10
1460.552967044181
 20
156.5572209049218
 30
0.0
 40
0.3937
100
AcDbArc
 50
90.0
 51
180.0
  0
LINE
  5
8D30
330
5F6E
100
AcDbEntity
  8
0
100
AcDbLine
 10
1486.159215044178
 20
140.8446539049122
 30
0.0
 11
1486.159215044178
 21
156.5572209049218
 31
0.0
  0
LINE
  5
8D31
330
5F6E
100
AcDbEntity
  8
0
100
AcDbLine
 10
1486.193528868264
 20
157.9509189049216
 30
0.0
 11
1460.12495322008
 21
157.9509189049216
 31
0.0
  0
LINE
  5
8D32
330
5F6E
100
AcDbEntity
  8
0
100
AcDbLine
 10
1487.159213044163
 20
140.4166400808111
 30
0.0
 11
1487.159213044163
 21
156.9852347289937
 31
0.0
  0
LINE
  5
8D33
330
5F6E
100
AcDbEntity
  8
0
100
AcDbLine
 10
1460.12495322008
 20
139.4509559049123
 30
0.0
 11
1486.193528868264
 21
139.4509559049123
 31
0.0
  0
CIRCLE
  5
8D34
330
5F6E
100
AcDbEntity
  8
0
100
AcDbCircle
 10
1473.159241044172
 20
151.7304589049103
 30
0.0
 40
2.28346
  0
CIRCLE
  5
8D35
330
5F6E
100
AcDbEntity
  8
0
100
AcDbCircle
 10
1473.159241044172
 20
151.7304589049103
 30
0.0
 40
2.16535
  0
CIRCLE
  5
8D36
330
5F6E
100
AcDbEntity
  8
0
100
AcDbCircle
 10
1473.159241044172
 20
151.7304589049103
 30
0.0
 40
1.771650000000485
  0
LINE
  5
8D37
330
5F6E
100
AcDbEntity
  8
细实线
 48
5.0
100
AcDbLine
 10
1461.012867690332
 20
156.0973202587714
 30
0.0
 11
1471.0055524736
 21
152.4892837283345
 31
0.0
  0
LINE
  5
8D38
330
5F6E
100
AcDbEntity
  8
粗实线
370
    -2
100
AcDbLine
 10
1460.552967044181
 20
156.9509209049078
 30
0.0
 11
1461.012867690303
 21
156.4910202587574
 31
0.0
  0
LINE
  5
8D39
330
5F6E
100
AcDbEntity
  8
粗实线
370
    -2
100
AcDbLine
 10
1460.159267044166
 20
156.5572209049218
 30
0.0
 11
1460.619167690317
 21
156.0973202587714
 31
0.0
  0
ARC
  5
8D3A
330
5F6E
100
AcDbEntity
  8
0
100
AcDbCircle
 10
1485.765515044163
 20
156.5572209049218
 30
0.0
 40
0.3937
100
AcDbArc
 50
0.0
 51
90.0
  0
ARC
  5
8D3B
330
5F6E
100
AcDbEntity
  8
0
100
AcDbCircle
 10
1460.552967044181
 20
140.8446539049122
 30
0.0
 40
0.3937
100
AcDbArc
 50
180.0
 51
270.0
  0
ARC
  5
8D3C
330
5F6E
100
AcDbEntity
  8
0
100
AcDbCircle
 10
1485.765515044163
 20
140.8446539049122
 30
0.0
 40
0.3937
100
AcDbArc
 50
270.0
 51
0.0
  0
LINE
  5
8D3D
330
5F6E
100
AcDbEntity
  8
细实线
 48
5.0
100
AcDbLine
 10
1461.012867690332
 20
141.3045545510625
 30
0.0
 11
1471.425186876592
 21
150.2447786851056
 31
0.0
  0
LINE
  5
8D3E
330
5F6E
100
AcDbEntity
  8
细实线
 48
5.0
100
AcDbLine
 10
1485.30561439743
 20
141.3045545527214
 30
0.0
 11
1474.893295211781
 21
150.2447786851347
 31
0.0
  0
LINE
  5
8D3F
330
5F6E
100
AcDbEntity
  8
0
100
AcDbLine
 10
1460.619167690317
 20
156.0973202587714
 30
0.0
 11
1460.619167690317
 21
141.3045545510625
 31
0.0
  0
LINE
  5
8D40
330
5F6E
100
AcDbEntity
  8
0
100
AcDbLine
 10
1461.012867690332
 20
141.1802568807119
 30
0.0
 11
1461.012867690332
 21
156.0973202587714
 31
0.0
  0
LINE
  5
8D41
330
5F6E
100
AcDbEntity
  8
0
100
AcDbLine
 10
1461.012867690332
 20
156.4910202587574
 30
0.0
 11
1461.012867690332
 21
156.0973202587714
 31
0.0
  0
LINE
  5
8D42
330
5F6E
100
AcDbEntity
  8
0
100
AcDbLine
 10
1461.012867690303
 20
156.4910202587574
 30
0.0
 11
1485.30561439743
 21
156.4910202581753
 31
0.0
  0
LINE
  5
8D43
330
5F6E
100
AcDbEntity
  8
0
100
AcDbLine
 10
1485.429912067286
 20
156.0973202576655
 30
0.0
 11
1461.012867690332
 21
156.0973202587714
 31
0.0
  0
LINE
  5
8D44
330
5F6E
100
AcDbEntity
  8
0
100
AcDbLine
 10
1460.619167690317
 20
156.0973202587714
 30
0.0
 11
1461.012867690332
 21
156.0973202587714
 31
0.0
  0
ARC
  5
8D45
330
5F6E
100
AcDbEntity
  8
粗实线
370
    -2
100
AcDbCircle
 10
1461.012867690303
 20
156.0973202587714
 30
0.0
 40
0.3937
100
AcDbArc
 50
90.0
 51
180.0
  0
LINE
  5
8D46
330
5F6E
100
AcDbEntity
  8
细实线
 48
5.0
100
AcDbLine
 10
1485.30561439743
 20
156.0973202581893
 30
0.0
 11
1475.312929614715
 21
152.4892837283345
 31
0.0
  0
LINE
  5
8D47
330
5F6E
100
AcDbEntity
  8
粗实线
370
    -2
100
AcDbLine
 10
1485.765515044163
 20
156.9509209049078
 30
0.0
 11
1485.305614397459
 21
156.4910202582044
 31
0.0
  0
LINE
  5
8D48
330
5F6E
100
AcDbEntity
  8
粗实线
370
    -2
100
AcDbLine
 10
1486.159215044178
 20
156.5572209049218
 30
0.0
 11
1485.699314397445
 21
156.0973202581893
 31
0.0
  0
LINE
  5
8D49
330
5F6E
100
AcDbEntity
  8
0
100
AcDbLine
 10
1485.699314397445
 20
156.0973202581893
 30
0.0
 11
1485.699314397445
 21
141.3045545516446
 31
0.0
  0
LINE
  5
8D4A
330
5F6E
100
AcDbEntity
  8
0
100
AcDbLine
 10
1485.30561439743
 20
140.9108545516586
 30
0.0
 11
1485.30561439743
 21
156.0973202581893
 31
0.0
  0
LINE
  5
8D4B
330
5F6E
100
AcDbEntity
  8
0
100
AcDbLine
 10
1485.30561439743
 20
156.4910202582044
 30
0.0
 11
1485.30561439743
 21
156.0973202581893
 31
0.0
  0
LINE
  5
8D4C
330
5F6E
100
AcDbEntity
  8
0
100
AcDbLine
 10
1485.699314397445
 20
156.0973202582184
 30
0.0
 11
1485.30561439743
 21
156.0973202581893
 31
0.0
  0
ARC
  5
8D4D
330
5F6E
100
AcDbEntity
  8
粗实线
370
    -2
100
AcDbCircle
 10
1485.305614397459
 20
156.0973202581893
 30
0.0
 40
0.3937
100
AcDbArc
 50
0.0
 51
90.0
  0
LINE
  5
8D4E
330
5F6E
100
AcDbEntity
  8
粗实线
370
    -2
100
AcDbLine
 10
1460.552967044181
 20
140.4509539049262
 30
0.0
 11
1461.012867690332
 21
140.9108545510765
 31
0.0
  0
LINE
  5
8D4F
330
5F6E
100
AcDbEntity
  8
粗实线
370
    -2
100
AcDbLine
 10
1460.159267044166
 20
140.8446539049122
 30
0.0
 11
1460.619167690317
 21
141.3045545510625
 31
0.0
  0
LINE
  5
8D50
330
5F6E
100
AcDbEntity
  8
0
100
AcDbLine
 10
1461.012867690332
 20
140.9108545510765
 30
0.0
 11
1461.012867690332
 21
141.3045545510625
 31
0.0
  0
LINE
  5
8D51
330
5F6E
100
AcDbEntity
  8
0
100
AcDbLine
 10
1461.012867690303
 20
140.9108545510765
 30
0.0
 11
1485.30561439743
 21
140.9108545516586
 31
0.0
  0
LINE
  5
8D52
330
5F6E
100
AcDbEntity
  8
0
100
AcDbLine
 10
1485.429912067286
 20
141.3045545521685
 30
0.0
 11
1461.012867690332
 21
141.3045545510625
 31
0.0
  0
LINE
  5
8D53
330
5F6E
100
AcDbEntity
  8
0
100
AcDbLine
 10
1460.619167690317
 20
141.3045545510625
 30
0.0
 11
1461.012867690332
 21
141.3045545510625
 31
0.0
  0
ARC
  5
8D54
330
5F6E
100
AcDbEntity
  8
粗实线
370
    -2
100
AcDbCircle
 10
1461.012867690303
 20
141.3045545510625
 30
0.0
 40
0.3937
100
AcDbArc
 50
180.0
 51
270.0
  0
LINE
  5
8D55
330
5F6E
100
AcDbEntity
  8
粗实线
370
    -2
100
AcDbLine
 10
1485.765515044163
 20
140.4509539049262
 30
0.0
 11
1485.30561439743
 21
140.9108545516586
 31
0.0
  0
LINE
  5
8D56
330
5F6E
100
AcDbEntity
  8
粗实线
370
    -2
100
AcDbLine
 10
1486.159215044178
 20
140.8446539049122
 30
0.0
 11
1485.699314397445
 21
141.3045545516155
 31
0.0
  0
LINE
  5
8D57
330
5F6E
100
AcDbEntity
  8
0
100
AcDbLine
 10
1485.30561439743
 20
140.9108545516586
 30
0.0
 11
1485.30561439743
 21
141.3045545527214
 31
0.0
  0
LINE
  5
8D58
330
5F6E
100
AcDbEntity
  8
0
100
AcDbLine
 10
1485.699314397445
 20
141.3045545516446
 30
0.0
 11
1485.30561439743
 21
141.3045545527214
 31
0.0
  0
ARC
  5
8D59
330
5F6E
100
AcDbEntity
  8
粗实线
370
    -2
100
AcDbCircle
 10
1485.305614397459
 20
141.3045545516446
 30
0.0
 40
0.3937
100
AcDbArc
 50
270.0
 51
0.0
  0
LINE
  5
8D5A
330
5F6E
100
AcDbEntity
  8
0
100
AcDbLine
 10
1459.159269044502
 20
176.4695699277199
 30
0.0
 11
1460.067492420529
 21
176.4695699277199
 31
0.0
  0
ARC
  5
8D5B
330
5F6E
100
AcDbEntity
  8
细实线
  6
ACAD_ISO02W100
 62
     4
100
AcDbCircle
 10
1460.067492419132
 20
176.3711449277452
 30
0.0
 40
0.098425
100
AcDbArc
 50
4.005089386086483
 51
90.0
  0
LINE
  5
8D5C
330
5F6E
100
AcDbEntity
  8
0
100
AcDbLine
 10
1459.159269044502
 20
176.4105149277293
 30
0.0
 11
1460.067481874349
 21
176.4105149277293
 31
0.0
  0
LINE
  5
8D5D
330
5F6E
100
AcDbEntity
  8
0
100
AcDbLine
 10
1459.159269044502
 20
176.4695699277199
 30
0.0
 11
1459.159269044502
 21
176.4105149277293
 31
0.0
  0
LINE
  5
8D5E
330
5F6E
100
AcDbEntity
  8
细实线
  6
ACAD_ISO02W100
 62
     4
100
AcDbLine
 10
1460.165677050513
 20
176.3780194300616
 30
0.0
 11
1460.619167690317
 21
169.9010689422703
 31
0.0
  0
ARC
  5
8D5F
330
5F6E
100
AcDbEntity
  8
细实线
  6
ACAD_ISO02W100
 62
     4
100
AcDbCircle
 10
1461.011906215898
 20
169.9285669516521
 30
0.0
 40
0.3937
100
AcDbArc
 50
184.0050893860865
 51
269.3641264624069
  0
LINE
  5
8D60
330
5F6E
100
AcDbEntity
  8
0
100
AcDbLine
 10
1460.106755723979
 20
176.373894770395
 30
0.0
 11
1460.560310785315
 21
169.8961687403771
 31
0.0
  0
ARC
  5
8D61
330
5F6E
100
AcDbEntity
  8
0
100
AcDbCircle
 10
1460.067481874349
 20
176.3711449277452
 30
0.0
 40
0.03937
100
AcDbArc
 50
4.005150274404163
 51
90.0
  0
LINE
  5
8D62
330
5F6E
100
AcDbEntity
  8
0
100
AcDbLine
 10
1460.067492419132
 20
176.4695699277199
 30
0.0
 11
1486.250989669212
 21
176.4695699277199
 31
0.0
  0
LINE
  5
8D63
330
5F6E
100
AcDbEntity
  8
0
100
AcDbLine
 10
1487.159213044163
 20
176.4695699277199
 30
0.0
 11
1486.250989669212
 21
176.4695699277199
 31
0.0
  0
ARC
  5
8D64
330
5F6E
100
AcDbEntity
  8
细实线
  6
ACAD_ISO02W100
 62
     4
100
AcDbCircle
 10
1486.250989669212
 20
176.3711449277452
 30
0.0
 40
0.098425
100
AcDbArc
 50
90.0
 51
175.9949106139135
  0
LINE
  5
8D65
330
5F6E
100
AcDbEntity
  8
细实线
  6
ACAD_ISO02W100
 62
     4
100
AcDbLine
 10
1486.152805037831
 20
176.3780194300616
 30
0.0
 11
1485.699314398027
 21
169.9010689422412
 31
0.0
  0
ARC
  5
8D66
330
5F6E
100
AcDbEntity
  8
细实线
  6
ACAD_ISO02W100
 62
     4
100
AcDbCircle
 10
1485.306575872446
 20
169.928566951623
 30
0.0
 40
0.3937
100
AcDbArc
 50
270.6358735375931
 51
355.9949106139135
  0
LINE
  5
8D67
330
5F6E
100
AcDbEntity
  8
细实线
  6
ACAD_ISO02W100
 62
     4
100
AcDbLine
 10
1485.310945099633
 20
169.5348911969031
 30
0.0
 11
1475.515697038564
 21
169.4063124007352
 31
0.0
  0
LINE
  5
8D68
330
5F6E
100
AcDbEntity
  8
细实线
  6
ACAD_ISO02W100
 62
     4
100
AcDbLine
 10
1475.442701044178
 20
169.4063124007352
 30
0.0
 11
1470.875781044166
 21
169.4063124007352
 31
0.0
  0
LINE
  5
8D69
330
5F6E
100
AcDbEntity
  8
细实线
  6
ACAD_ISO02W100
 62
     4
100
AcDbLine
 10
1470.802785571699
 20
169.4063124007352
 30
0.0
 11
1475.515697038564
 21
169.4063124007352
 31
0.0
  0
LINE
  5
8D6A
330
5F6E
100
AcDbEntity
  8
中心线
 48
2.0
100
AcDbLine
 10
1473.159241044172
 20
168.81837738375
 30
0.0
 11
1473.159241044172
 21
176.8894447172624
 31
0.0
  0
ARC
  5
8D6B
330
5F6E
100
AcDbEntity
  8
细实线
  6
ACAD_ISO02W100
 62
     4
100
AcDbCircle
 10
1475.515697038564
 20
169.2882024007249
 30
0.0
 40
0.11811
100
AcDbArc
 50
90.0
 51
153.4349489176314
  0
ARC
  5
8D6C
330
5F6E
100
AcDbEntity
  8
细实线
  6
ACAD_ISO02W100
 62
     4
100
AcDbCircle
 10
1470.80278504978
 20
169.2882024007249
 30
0.0
 40
0.11811
100
AcDbArc
 50
26.56505132846297
 51
90.0
  0
ARC
  5
8D6D
330
5F6E
100
AcDbEntity
  8
细实线
  6
ACAD_ISO02W100
 62
     4
100
AcDbCircle
 10
1475.28809304696
 20
169.2291474007343
 30
0.0
 40
0.059055
100
AcDbArc
 50
270.0000000416882
 51
333.4349483493782
  0
ARC
  5
8D6E
330
5F6E
100
AcDbEntity
  8
细实线
  6
ACAD_ISO02W100
 62
     4
100
AcDbCircle
 10
1471.030389041384
 20
169.2291474007343
 30
0.0
 40
0.059055
100
AcDbArc
 50
206.5650522188747
 51
269.9999999583118
  0
LINE
  5
8D6F
330
5F6E
100
AcDbEntity
  8
细实线
  6
ACAD_ISO02W100
 62
     4
100
AcDbLine
 10
1470.97756864361
 20
169.2027372018765
 30
0.0
 11
1470.908425845299
 21
169.3410227984986
 31
0.0
  0
LINE
  5
8D70
330
5F6E
100
AcDbEntity
  8
细实线
  6
ACAD_ISO02W100
 62
     4
100
AcDbLine
 10
1475.28809304696
 20
169.1700924007436
 30
0.0
 11
1474.930891044182
 21
169.1700924007436
 31
0.0
  0
LINE
  5
8D71
330
5F6E
100
AcDbEntity
  8
细实线
  6
ACAD_ISO02W100
 62
     4
100
AcDbLine
 10
1471.387591044162
 20
169.1110374007239
 30
0.0
 11
1471.387591044162
 21
169.1700924007436
 31
0.0
  0
LINE
  5
8D72
330
5F6E
100
AcDbEntity
  8
细实线
  6
ACAD_ISO02W100
 62
     4
100
AcDbLine
 10
1475.340913444734
 20
169.2027372018765
 30
0.0
 11
1475.410056243045
 21
169.3410227984986
 31
0.0
  0
LINE
  5
8D73
330
5F6E
100
AcDbEntity
  8
细实线
  6
ACAD_ISO02W100
 62
     4
100
AcDbLine
 10
1474.930891044182
 20
169.1110374007239
 30
0.0
 11
1474.930891044182
 21
169.1700924007436
 31
0.0
  0
LINE
  5
8D74
330
5F6E
100
AcDbEntity
  8
细实线
  6
ACAD_ISO02W100
 62
     4
100
AcDbLine
 10
1471.387591044162
 20
169.1700924007436
 30
0.0
 11
1471.030389041384
 21
169.1700924007436
 31
0.0
  0
LINE
  5
8D75
330
5F6E
100
AcDbEntity
  8
细实线
  6
ACAD_ISO02W100
 62
     4
100
AcDbLine
 10
1474.930891044182
 20
169.1700924007436
 30
0.0
 11
1471.387591044162
 21
169.1700924007436
 31
0.0
  0
LINE
  5
8D76
330
5F6E
100
AcDbEntity
  8
0
100
AcDbLine
 10
1475.393733842479
 20
169.1763270029896
 30
0.0
 11
1475.462876640819
 21
169.3146125996409
 31
0.0
  0
ARC
  5
8D77
330
5F6E
100
AcDbEntity
  8
0
100
AcDbCircle
 10
1475.515697038564
 20
169.2882024007249
 30
0.0
 40
0.059055
100
AcDbArc
 50
90.0
 51
153.4349489176314
  0
LINE
  5
8D78
330
5F6E
100
AcDbEntity
  8
0
100
AcDbLine
 10
1485.31151624365
 20
169.4750644768046
 30
0.0
 11
1475.515697038564
 21
169.3472574007446
 31
0.0
  0
ARC
  5
8D79
330
5F6E
100
AcDbEntity
  8
0
100
AcDbCircle
 10
1475.28809304696
 20
169.2291474007343
 30
0.0
 40
0.11811
100
AcDbArc
 50
270.0000000416882
 51
333.4349483493782
  0
LINE
  5
8D7A
330
5F6E
100
AcDbEntity
  8
0
100
AcDbLine
 10
1475.28809304696
 20
169.1110374007239
 30
0.0
 11
1474.930891044182
 21
169.1110374007239
 31
0.0
  0
LINE
  5
8D7B
330
5F6E
100
AcDbEntity
  8
0
100
AcDbLine
 10
1474.930891044182
 20
169.1110374007239
 30
0.0
 11
1471.387591044162
 21
169.1110374007239
 31
0.0
  0
LINE
  5
8D7C
330
5F6E
100
AcDbEntity
  8
0
100
AcDbLine
 10
1471.387591044162
 20
169.1110374007239
 30
0.0
 11
1471.030389041384
 21
169.1110374007239
 31
0.0
  0
ARC
  5
8D7D
330
5F6E
100
AcDbEntity
  8
0
100
AcDbCircle
 10
1471.030389041384
 20
169.2291474007343
 30
0.0
 40
0.11811
100
AcDbArc
 50
206.5650522188747
 51
269.9999999583118
  0
LINE
  5
8D7E
330
5F6E
100
AcDbEntity
  8
0
100
AcDbLine
 10
1470.924748245865
 20
169.1763270029896
 30
0.0
 11
1470.855605447525
 21
169.3146125996409
 31
0.0
  0
ARC
  5
8D7F
330
5F6E
100
AcDbEntity
  8
0
100
AcDbCircle
 10
1470.80278504978
 20
169.2882024007249
 30
0.0
 40
0.059055
100
AcDbArc
 50
26.56505132846297
 51
90.0
  0
LINE
  5
8D80
330
5F6E
100
AcDbEntity
  8
0
100
AcDbLine
 10
1487.159213044163
 20
176.4105149277293
 30
0.0
 11
1486.251000213995
 21
176.4105149277293
 31
0.0
  0
ARC
  5
8D81
330
5F6E
100
AcDbEntity
  8
0
100
AcDbCircle
 10
1486.251000213995
 20
176.3711449277452
 30
0.0
 40
0.03937
100
AcDbArc
 50
90.0
 51
175.9948497255958
  0
LINE
  5
8D82
330
5F6E
100
AcDbEntity
  8
0
100
AcDbLine
 10
1486.211726364365
 20
176.373894770395
 30
0.0
 11
1485.758171303029
 21
169.896168740348
 31
0.0
  0
ARC
  5
8D83
330
5F6E
100
AcDbEntity
  8
0
100
AcDbCircle
 10
1485.306522032194
 20
169.9277919310825
 30
0.0
 40
0.452755
100
AcDbArc
 50
270.6320262580902
 51
355.9948497255958
  0
LINE
  5
8D84
330
5F6E
100
AcDbEntity
  8
0
100
AcDbLine
 10
1487.159213044163
 20
176.4695699277199
 30
0.0
 11
1487.159213044163
 21
176.4105149277293
 31
0.0
  0
LINE
  5
8D85
330
5F6E
100
AcDbEntity
  8
细实线
  6
ACAD_ISO02W100
 62
     4
100
AcDbLine
 10
1461.007536988711
 20
169.5348911969322
 30
0.0
 11
1470.80278504978
 21
169.4063124007352
 31
0.0
  0
LINE
  5
8D86
330
5F6E
100
AcDbEntity
  8
0
100
AcDbLine
 10
1461.006965844694
 20
169.4750644768337
 30
0.0
 11
1470.80278504978
 21
169.3472574007446
 31
0.0
  0
ARC
  5
8D87
330
5F6E
100
AcDbEntity
  8
0
100
AcDbCircle
 10
1461.011960056151
 20
169.9277919311116
 30
0.0
 40
0.452755
100
AcDbArc
 50
184.0051502744042
 51
269.3679737419099
  0
POINT
  5
8D88
330
5F6E
100
AcDbEntity
  8
0
100
AcDbPoint
 10
1460.159267044166
 20
176.4695699277199
 30
0.0
  0
POINT
  5
8D89
330
5F6E
100
AcDbEntity
  8
0
100
AcDbPoint
 10
1486.159215044178
 20
176.4695699277199
 30
0.0
  0
DIMENSION
  5
8D8A
330
5F6E
100
AcDbEntity
  8
标注线
 48
5.0
100
AcDbDimension
  2
*D35
 10
1489.204957064683
 20
169.4706017988192
 30
0.0
 11
1489.204957064683
 21
172.9700858632698
 31
0.0
 70
   160
 71
     5
 42
6.998968128900742
  3
副本Standard$0
100
AcDbAlignedDimension
 13
1487.159213044163
 23
176.4695699277199
 33
0.0
 14
1488.046857770247
 24
169.4706017988192
 34
0.0
 50
90.0
100
AcDbRotatedDimension
1001
ACAD
1000
DSTYLE
1002
{
1070
     3
1000
"
1070
    41
1040
0.65
1070
    42
1040
0.88
1070
    43
1040
0.015
1070
    44
1040
0.32
1070
    79
1070
     0
1070
   140
1040
0.65
1070
   147
1040
0.3
1070
   171
1070
     1
1070
   179
1070
     0
1070
   271
1070
     3
1070
   272
1070
     3
1070
   273
1070
     2
1070
   274
1070
     1
1070
   276
1070
     2
1070
   277
1070
     5
1070
   278
1070
    46
1070
   279
1070
     2
1070
   284
1070
     8
1070
   285
1070
     8
1070
   286
1070
     8
1002
}
  0
LINE
  5
8D8F
330
5F6E
100
AcDbEntity
  8
0
100
AcDbLine
 10
1459.182331456226
 20
157.040912316946
 30
0.0
 11
1460.069275632128
 21
157.9278564928476
 31
0.0
  0
ARC
  5
8D90
330
5F6E
100
AcDbEntity
  8
0
100
AcDbCircle
 10
1459.238009044179
 20
156.9852347289937
 30
0.0
 40
0.07874
100
AcDbArc
 50
134.9999999999957
 51
180.0
  0
ARC
  5
8D91
330
5F6E
100
AcDbEntity
  8
0
100
AcDbCircle
 10
1460.12495322008
 20
157.8721789048953
 30
0.0
 40
0.07874
100
AcDbArc
 50
90.0
 51
134.9999999999957
  0
LINE
  5
8D92
330
5F6E
100
AcDbEntity
  8
0
100
AcDbLine
 10
1487.136150632118
 20
157.040912316946
 30
0.0
 11
1486.249206456216
 21
157.9278564928476
 31
0.0
  0
ARC
  5
8D93
330
5F6E
100
AcDbEntity
  8
0
100
AcDbCircle
 10
1487.080473044165
 20
156.9852347289937
 30
0.0
 40
0.07874
100
AcDbArc
 50
0.0
 51
45.00000000000432
  0
ARC
  5
8D94
330
5F6E
100
AcDbEntity
  8
0
100
AcDbCircle
 10
1486.193528868264
 20
157.8721789048953
 30
0.0
 40
0.07874
100
AcDbArc
 50
45.00000000000432
 51
90.0
  0
LINE
  5
8D95
330
5F6E
100
AcDbEntity
  8
0
100
AcDbLine
 10
1459.182331456226
 20
140.3609624928589
 30
0.0
 11
1460.069275632128
 21
139.4740183169573
 31
0.0
  0
ARC
  5
8D96
330
5F6E
100
AcDbEntity
  8
0
100
AcDbCircle
 10
1459.238009044179
 20
140.4166400808111
 30
0.0
 40
0.07874
100
AcDbArc
 50
180.0
 51
225.0000000000043
  0
ARC
  5
8D97
330
5F6E
100
AcDbEntity
  8
0
100
AcDbCircle
 10
1460.12495322008
 20
139.5296959049095
 30
0.0
 40
0.07874
100
AcDbArc
 50
225.0000000000043
 51
270.0
  0
LINE
  5
8D98
330
5F6E
100
AcDbEntity
  8
0
100
AcDbLine
 10
1487.136150632118
 20
140.3609624928589
 30
0.0
 11
1486.249206456216
 21
139.4740183169573
 31
0.0
  0
ARC
  5
8D99
330
5F6E
100
AcDbEntity
  8
0
100
AcDbCircle
 10
1487.080473044165
 20
140.4166400808111
 30
0.0
 40
0.07874
100
AcDbArc
 50
314.9999999999957
 51
0.0
  0
ARC
  5
8D9A
330
5F6E
100
AcDbEntity
  8
0
100
AcDbCircle
 10
1486.193528868264
 20
139.5296959049095
 30
0.0
 40
0.07874
100
AcDbArc
 50
270.0
 51
314.9999999999957
  0
LINE
  5
8D9B
330
5F6E
100
AcDbEntity
  8
中心线
  6
Continuous
 62
     1
100
AcDbLine
 10
1460.552967044298
 20
106.1311457627143
 30
0.0
 11
1485.765515044308
 21
106.1311457627143
 31
0.0
  0
ARC
  5
8D9C
330
5F6E
100
AcDbEntity
  8
中心线
  6
Continuous
 62
     1
100
AcDbCircle
 10
1460.552967044298
 20
106.6035857627266
 30
0.0
 40
0.4724400000000001
100
AcDbArc
 50
180.0
 51
270.0
  0
LINE
  5
8D9D
330
5F6E
100
AcDbEntity
  8
中心线
  6
Continuous
 62
     1
100
AcDbLine
 10
1485.765515044308
 20
122.7885927627194
 30
0.0
 11
1460.552967044298
 21
122.7885927627194
 31
0.0
  0
ARC
  5
8D9E
330
5F6E
100
AcDbEntity
  8
中心线
  6
Continuous
 62
     1
100
AcDbCircle
 10
1485.765515044308
 20
122.3161527627071
 30
0.0
 40
0.4724400000000001
100
AcDbArc
 50
0.0
 51
90.0
  0
ARC
  5
8D9F
330
5F6E
100
AcDbEntity
  8
中心线
  6
Continuous
 62
     1
100
AcDbCircle
 10
1460.552967044298
 20
122.3161527627071
 30
0.0
 40
0.4724400000000001
100
AcDbArc
 50
90.0
 51
180.0
  0
LINE
  5
8DA0
102
{ACAD_REACTORS
330
8DA5
102
}
330
5F6E
100
AcDbEntity
  8
中心线
  6
Continuous
 62
     1
100
AcDbLine
 10
1486.237955044291
 20
106.6035857627266
 30
0.0
 11
1486.237955044291
 21
122.3161527627071
 31
0.0
  0
ARC
  5
8DA1
330
5F6E
100
AcDbEntity
  8
中心线
  6
Continuous
 62
     1
100
AcDbCircle
 10
1485.765515044308
 20
106.6035857627266
 30
0.0
 40
0.4724400000000001
100
AcDbArc
 50
270.0
 51
0.0
  0
LINE
  5
8DA2
102
{ACAD_REACTORS
330
8DA5
102
}
330
5F6E
100
AcDbEntity
  8
中心线
  6
Continuous
 62
     1
100
AcDbLine
 10
1460.080527044286
 20
106.6035857627266
 30
0.0
 11
1460.080527044286
 21
122.3161527627071
 31
0.0
  0
DIMENSION
  5
8DA3
102
{ACAD_XDICTIONARY
360
8DA4
102
}
102
{ACAD_REACTORS
330
8DA5
102
}
330
5F6E
100
AcDbEntity
  8
标注线
 48
5.0
100
AcDbDimension
  2
*D40
 10
1486.237955044291
 20
103.9004974192921
 30
0.0
 11
1473.159241044288
 21
103.9004974192921
 31
0.0
 70
    32
 71
     5
 42
26.15742800000589
  3
副本Standard$0
100
AcDbAlignedDimension
 13
1460.080527044286
 23
106.6035857627266
 33
0.0
 14
1486.237955044291
 24
106.6035857627266
 34
0.0
100
AcDbRotatedDimension
1001
ACAD
1000
DSTYLE
1002
{
1070
     3
1000
"
1070
    41
1040
0.65
1070
    42
1040
0.88
1070
    43
1040
0.015
1070
    44
1040
0.32
1070
    79
1070
     0
1070
   140
1040
0.65
1070
   147
1040
0.3
1070
   171
1070
     1
1070
   179
1070
     0
1070
   271
1070
     3
1070
   272
1070
     3
1070
   273
1070
     2
1070
   274
1070
     1
1070
   276
1070
     2
1070
   277
1070
     5
1070
   278
1070
    46
1070
   279
1070
     2
1070
   284
1070
     8
1070
   285
1070
     8
1070
   286
1070
     8
1002
}
  0
DIMENSION
  5
8DA6
330
5F6E
100
AcDbEntity
  8
标注线
 48
5.0
100
AcDbDimension
  2
*D37
 10
1488.467854612872
 20
106.1311457627143
 30
0.0
 11
1488.467854612872
 21
114.4598692627171
 31
0.0
 70
    32
 71
     5
 42
16.65744700000505
  3
副本Standard$0
100
AcDbAlignedDimension
 13
1485.765515044308
 23
122.7885927627194
 33
0.0
 14
1485.765515044308
 24
106.1311457627143
 34
0.0
 50
90.0
100
AcDbRotatedDimension
1001
ACAD
1000
DSTYLE
1002
{
1070
     3
1000
"
1070
    41
1040
0.65
1070
    42
1040
0.88
1070
    43
1040
0.015
1070
    44
1040
0.32
1070
    79
1070
     0
1070
   140
1040
0.65
1070
   147
1040
0.3
1070
   171
1070
     1
1070
   179
1070
     0
1070
   271
1070
     3
1070
   272
1070
     3
1070
   273
1070
     2
1070
   274
1070
     1
1070
   276
1070
     2
1070
   277
1070
     5
1070
   278
1070
    46
1070
   279
1070
     2
1070
   284
1070
     8
1070
   285
1070
     8
1070
   286
1070
     8
1002
}
  0
LINE
  5
8F6E
330
5F6E
100
AcDbEntity
  8
0
100
AcDbLine
 10
1486.251000213995
 20
176.4105149277452
 30
0.0
 11
1460.067481874349
 21
176.4105149277293
 31
0.0
  0
LINE
  5
8F6F
330
5F6E
100
AcDbEntity
  8
0
100
AcDbLine
 10
1470.80278504978
 20
169.3472574007249
 30
0.0
 11
1475.515697038564
 21
169.3472574007249
 31
0.0
  0
TEXT
  5
8F86
330
5F6E
100
AcDbEntity
  8
标注
100
AcDbText
 10
1469.708616469748
 20
166.3090429181019
 30
0.0
 40
0.7874015748031497
  1
FRONT VIEW
100
AcDbText
  0
TEXT
  5
8F87
330
5F6E
100
AcDbEntity
  8
标注
100
AcDbText
 10
1468.865819216486
 20
131.5612747860493
 30
0.0
 40
0.7874015748031497
  1
OVERHEAD VIEW
100
AcDbText
  0
TEXT
  5
8F88
330
5F6E
100
AcDbEntity
  8
标注
100
AcDbText
 10
1474.732766605386
 20
98.35636376981888
 30
0.0
 40
0.7874015748031497
  1
 CUTOUT
100
AcDbText
  0
LINE
  5
8F89
330
5F6E
100
AcDbEntity
  8
中心线
  6
Continuous
 62
     1
100
AcDbLine
 10
1467.067360524819
 20
98.60956523712371
 30
0.0
 11
1473.284165528903
 21
98.60956523712371
 31
0.0
  0
DIMENSION
  5
8F8A
330
5F6E
100
AcDbEntity
  8
标注线
100
AcDbDimension
  2
*D41
 10
1460.552967044297
 20
106.6035857627264
 30
0.0
 11
1461.286020716441
 21
107.4974494958893
 31
0.0
 70
   164
 71
     5
 42
0.4724399999993239
  3
副本STANDARD
100
AcDbRadialDimension
 15
1460.151833846301
 25
106.3540026882518
 35
0.0
 40
0.0
1001
ACAD
1000
DSTYLE
1002
{
1070
    49
1040
1.25
1070
    50
1040
1.570796326794896
1070
   288
1070
     1
1070
   345
1005
5F5E
1070
   346
1005
5F5E
1070
   347
1005
5F5E
1002
}
1001
ACAD_DSTYLE_DIMRADIAL_EXTENSION
1070
   387
1070
     1
1070
   388
1040
3.141592653589793
1070
   390
1040
4.712388980384689
  0
ENDSEC
  0
SECTION
  2
OBJECTS
  0
DICTIONARY
  5
5F06
330
0
100
AcDbDictionary
281
     1
  3
ACAD_2007HEADERVARS_RT
350
8F96
  3
ACAD_COLOR
350
5F64
  3
ACAD_GROUP
350
5F07
  3
ACAD_LAYOUT
350
5F63
  3
ACAD_MATERIAL
350
5F0A
  3
ACAD_MLEADERSTYLE
350
5F67
  3
ACAD_MLINESTYLE
350
5F60
  3
ACAD_PLOTSETTINGS
350
5F62
  3
ACAD_PLOTSTYLENAME
350
5F08
  3
ACAD_SCALELIST
350
5F34
  3
ACAD_TABLESTYLE
350
5F65
  3
ACAD_VISUALSTYLE
350
5F23
  3
ACDB_RECOMPOSE_DATA
350
6F70
  3
AcDbVariableDictionary
350
6102
  3
DWGPROPS
350
8F95
  3
lxx_dict
350
60F2
  0
DICTIONARY
  5
61B7
330
5EFC
100
AcDbDictionary
280
     1
281
     1
  3
ACAD_LAYERSTATES
360
61B8
  0
DICTIONARY
  5
60F4
330
5F56
100
AcDbDictionary
280
     1
281
     1
  3
ADSK_XREC_LAYER_RECONCILED
360
60F5
  0
DICTIONARY
  5
60F6
330
5F72
100
AcDbDictionary
280
     1
281
     1
  3
ADSK_XREC_LAYER_RECONCILED
360
60F7
  0
DICTIONARY
  5
60F8
330
5F7D
100
AcDbDictionary
280
     1
281
     1
  3
ADSK_XREC_LAYER_RECONCILED
360
60F9
  0
DICTIONARY
  5
60FC
330
5F80
100
AcDbDictionary
280
     1
281
     1
  3
ADSK_XREC_LAYER_RECONCILED
360
60FD
  0
DICTIONARY
  5
8C95
330
8C94
100
AcDbDictionary
280
     1
281
     1
  0
DICTIONARY
  5
654F
330
5F6E
100
AcDbDictionary
280
     1
281
     1
  3
ACAD_SORTENTS
360
6550
  0
DICTIONARY
  5
8DA4
330
8DA3
100
AcDbDictionary
280
     1
281
     1
  3
ACAD_DIMASSOC
360
8DA5
  0
DICTIONARY
  5
8F96
102
{ACAD_REACTORS
330
5F06
102
}
330
5F06
100
AcDbDictionary
281
     1
  3
DIMFXL
350
8F97
  3
DIMJOGANG
350
8F98
  3
DIMLTEX1
350
8F9A
  3
DIMLTEX2
350
8F9B
  3
DIMLTYPE
350
8F99
  0
DICTIONARY
  5
5F64
102
{ACAD_REACTORS
330
5F06
102
}
330
5F06
100
AcDbDictionary
281
     1
  0
DICTIONARY
  5
5F07
102
{ACAD_REACTORS
330
5F06
102
}
330
5F06
100
AcDbDictionary
281
     1
  0
DICTIONARY
  5
5F63
102
{ACAD_REACTORS
330
5F06
102
}
330
5F06
100
AcDbDictionary
281
     1
  3
Model
350
5F71
  3
布局1
350
5F6D
  0
DICTIONARY
  5
5F0A
102
{ACAD_REACTORS
330
5F06
102
}
330
5F06
100
AcDbDictionary
281
     1
  3
ByBlock
350
5F13
  3
ByLayer
350
5F0B
  3
Global
350
5F1B
  0
DICTIONARY
  5
5F67
102
{ACAD_REACTORS
330
5F06
102
}
330
5F06
100
AcDbDictionary
281
     1
  3
Standard
350
5F68
  0
DICTIONARY
  5
5F60
102
{ACAD_REACTORS
330
5F06
102
}
330
5F06
100
AcDbDictionary
281
     1
  3
Standard
350
5F61
  0
DICTIONARY
  5
5F62
102
{ACAD_REACTORS
330
5F06
102
}
330
5F06
100
AcDbDictionary
281
     1
  0
ACDBDICTIONARYWDFLT
  5
5F08
102
{ACAD_REACTORS
330
5F06
102
}
330
5F06
100
AcDbDictionary
281
     1
  3
Normal
350
5F09
100
AcDbDictionaryWithDefault
340
5F09
  0
DICTIONARY
  5
5F34
102
{ACAD_REACTORS
330
5F06
102
}
330
5F06
100
AcDbDictionary
281
     1
  3
A0
350
5F35
  3
A1
350
5F36
  3
A2
350
5F37
  3
A3
350
5F38
  3
A4
350
5F39
  3
A5
350
5F3A
  3
A6
350
5F3B
  3
A7
350
5F3C
  3
A8
350
5F3D
  3
A9
350
5F3E
  3
B0
350
5F3F
  3
B1
350
5F40
  3
B2
350
5F41
  3
B3
350
5F42
  3
B4
350
5F43
  3
B5
350
5F44
  3
B6
350
5F45
  3
B7
350
5F46
  3
B8
350
5F47
  3
B9
350
5F48
  3
C0
350
5F49
  3
C1
350
5F4A
  3
C2
350
5F4B
  3
C3
350
5F4C
  3
C4
350
5F4D
  3
C5
350
5F4E
  3
C6
350
5F4F
  3
C7
350
5F50
  3
C8
350
5F51
  3
C9
350
5F52
  3
D0
350
5F53
  3
D1
350
5F54
  3
D2
350
5F55
  0
DICTIONARY
  5
5F65
102
{ACAD_REACTORS
330
5F06
102
}
330
5F06
100
AcDbDictionary
281
     1
  3
Standard
350
5F66
  0
DICTIONARY
  5
5F23
102
{ACAD_REACTORS
330
5F06
102
}
330
5F06
100
AcDbDictionary
281
     1
  3
2dWireframe
350
5F29
  3
3D Hidden
350
5F2B
  3
3dWireframe
350
5F2A
  3
Basic
350
5F28
  3
Brighten
350
5F2F
  3
ColorChange
350
5F33
  3
Conceptual
350
5F2C
  3
Dim
350
5F2E
  3
Facepattern
350
5F32
  3
Flat
350
5F24
  3
FlatWithEdges
350
5F25
  3
Gouraud
350
5F26
  3
GouraudWithEdges
350
5F27
  3
Linepattern
350
5F31
  3
Realistic
350
5F2D
  3
Thicken
350
5F30
  0
XRECORD
  5
6F70
102
{ACAD_REACTORS
330
5F06
102
}
330
5F06
100
AcDbXrecord
280
     1
 90
        1
330
5F66
  0
DICTIONARY
  5
6102
102
{ACAD_REACTORS
330
5F06
102
}
330
5F06
100
AcDbDictionary
281
     1
  3
CANNOSCALE
350
6105
  3
CMLEADERSTYLE
350
6104
  3
CTABLESTYLE
350
6103
  3
DIMASSOC
350
6108
  3
INDEXCTL
350
6107
  3
SORTENTS
350
6106
  0
XRECORD
  5
8F95
102
{ACAD_REACTORS
330
5F06
102
}
330
5F06
100
AcDbXrecord
280
     1
  1
DWGPROPS COOKIE
  2

  3

  4

  6

  7

  8
Administrator
  9

300
=
301
=
302
=
303
=
304
=
305
=
306
=
307
=
308
=
309
=
 40
0.7725558912037038
 41
2455434.724808658
 42
2458649.581705417
  1

 90
        0
  0
DICTIONARY
  5
60F2
102
{ACAD_REACTORS
330
5F06
102
}
330
5F06
100
AcDbDictionary
281
     1
  3
lxx_dimth
350
60F3
  0
DICTIONARY
  5
61B8
102
{ACAD_REACTORS
330
61B7
102
}
330
61B7
100
AcDbDictionary
281
     1
  0
XRECORD
  5
60F5
102
{ACAD_REACTORS
330
60F4
102
}
330
60F4
100
AcDbXrecord
280
     1
290
     1
  0
XRECORD
  5
60F7
102
{ACAD_REACTORS
330
60F6
102
}
330
60F6
100
AcDbXrecord
280
     1
290
     1
  0
XRECORD
  5
60F9
102
{ACAD_REACTORS
330
60F8
102
}
330
60F8
100
AcDbXrecord
280
     1
290
     1
  0
XRECORD
  5
60FD
102
{ACAD_REACTORS
330
60FC
102
}
330
60FC
100
AcDbXrecord
280
     1
290
     1
  0
SORTENTSTABLE
  5
6550
102
{ACAD_REACTORS
330
654F
102
}
330
654F
100
AcDbSortentsTable
330
5F6E
  0
DIMASSOC
  5
8DA5
102
{ACAD_REACTORS
330
8DA4
102
}
330
8DA4
100
AcDbDimAssoc
330
8DA3
 90
        2
 70
     0
 71
     0
  1
AcDbOsnapPointRef
 72
    13
331
8DA0
 73
     2
 91
        0
 40
0.0
 10
0.0
 20
0.0
 30
2.000000000000000E+50
 75
     0
  0
XRECORD
  5
8F97
102
{ACAD_REACTORS
330
8F96
102
}
330
8F96
100
AcDbXrecord
280
     1
 40
1.25
  0
XRECORD
  5
8F98
102
{ACAD_REACTORS
330
8F96
102
}
330
8F96
100
AcDbXrecord
280
     1
 40
1.570796326794896
  0
XRECORD
  5
8F9A
102
{ACAD_REACTORS
330
8F96
102
}
330
8F96
100
AcDbXrecord
280
     1
340
5F5E
  0
XRECORD
  5
8F9B
102
{ACAD_REACTORS
330
8F96
102
}
330
8F96
100
AcDbXrecord
280
     1
340
5F5E
  0
XRECORD
  5
8F99
102
{ACAD_REACTORS
330
8F96
102
}
330
8F96
100
AcDbXrecord
280
     1
340
5F5E
  0
LAYOUT
  5
5F71
102
{ACAD_XDICTIONARY
360
8F9F
102
}
102
{ACAD_REACTORS
330
5F63
102
}
330
5F63
100
AcDbPlotSettings
  1

  2
\\192.168.1.64\Canon LBP2900
  4
A4
  6

 40
5.873749732971191
 41
6.805061340332031
 42
5.873748779296875
 43
4.857757568359375
 44
209.9733276367186
 45
296.9259948730469
 46
0.0
 47
0.0
 48
0.0
 49
0.0
140
0.0
141
0.0
142
1.0
143
15.879357507287
 70
 11952
 72
     0
 73
     1
 74
     0
  7

 75
     0
147
0.0629748401055334
148
-27226.80690415248
149
-2266.514499453142
100
AcDbLayout
  1
Model
 70
     1
 71
     0
 10
0.0
 20
0.0
 11
12.0
 21
9.0
 12
0.0
 22
0.0
 32
0.0
 14
0.0
 24
0.0
 34
0.0
 15
0.0
 25
0.0
 35
0.0
146
0.0
 13
0.0
 23
0.0
 33
0.0
 16
1.0
 26
0.0
 36
0.0
 17
0.0
 27
1.0
 37
0.0
 76
     0
330
5F6E
331
5F73
1001
ACAD_PSEXT
1000
\\192.168.1.64\Canon LBP2900
1000
Canon LBP2900
1000
\\192.168.1.64
1000

1070
     0
  0
LAYOUT
  5
5F6D
102
{ACAD_XDICTIONARY
360
8F9D
102
}
102
{ACAD_REACTORS
330
5F63
102
}
330
5F63
100
AcDbPlotSettings
  1

  2
\\192.168.1.64\Canon LBP2900
  4

  6

 40
0.0
 41
0.0
 42
0.0
 43
0.0
 44
0.0
 45
0.0
 46
0.0
 47
0.0
 48
0.0
 49
0.0
140
0.0
141
0.0
142
1.0
143
1.0
 70
   688
 72
     0
 73
     0
 74
     5
  7

 75
    16
147
1.0
148
0.0
149
0.0
100
AcDbLayout
  1
布局1
 70
     1
 71
     1
 10
0.0
 20
0.0
 11
12.0
 21
9.0
 12
0.0
 22
0.0
 32
0.0
 14
1.000000000000000E+20
 24
1.000000000000000E+20
 34
1.000000000000000E+20
 15
-1.000000000000000E+20
 25
-1.000000000000000E+20
 35
-1.000000000000000E+20
146
0.0
 13
0.0
 23
0.0
 33
0.0
 16
1.0
 26
0.0
 36
0.0
 17
0.0
 27
1.0
 37
0.0
 76
     0
330
5F6A
  0
MATERIAL
  5
5F13
102
{ACAD_XDICTIONARY
360
5F14
102
}
102
{ACAD_REACTORS
330
5F0A
102
}
330
5F0A
100
AcDbMaterial
  1
ByBlock
 72
     0
 43
0.0208333333333333
 43
0.0
 43
0.0
 43
0.0
 43
0.0
 43
0.0208333333333333
 43
0.0
 43
0.0
 43
0.0
 43
0.0
 43
1.0
 43
0.0
 43
0.0
 43
0.0
 43
0.0
 43
1.0
 77
     0
 47
0.0208333333333333
 47
0.0
 47
0.0
 47
0.0
 47
0.0
 47
0.0208333333333333
 47
0.0
 47
0.0
 47
0.0
 47
0.0
 47
1.0
 47
0.0
 47
0.0
 47
0.0
 47
0.0
 47
1.0
171
     0
 49
0.0208333333333333
 49
0.0
 49
0.0
 49
0.0
 49
0.0
 49
0.0208333333333333
 49
0.0
 49
0.0
 49
0.0
 49
0.0
 49
1.0
 49
0.0
 49
0.0
 49
0.0
 49
0.0
 49
1.0
175
     0
142
0.0208333333333333
142
0.0
142
0.0
142
0.0
142
0.0
142
0.0208333333333333
142
0.0
142
0.0
142
0.0
142
0.0
142
1.0
142
0.0
142
0.0
142
0.0
142
0.0
142
1.0
179
     0
144
0.0208333333333333
144
0.0
144
0.0
144
0.0
144
0.0
144
0.0208333333333333
144
0.0
144
0.0
144
0.0
144
0.0
144
1.0
144
0.0
144
0.0
144
0.0
144
0.0
144
1.0
147
0.0208333333333333
147
0.0
147
0.0
147
0.0
147
0.0
147
0.0208333333333333
147
0.0
147
0.0
147
0.0
147
0.0
147
1.0
147
0.0
147
0.0
147
0.0
147
0.0
147
1.0
  0
MATERIAL
  5
5F0B
102
{ACAD_XDICTIONARY
360
5F0C
102
}
102
{ACAD_REACTORS
330
5F0A
102
}
330
5F0A
100
AcDbMaterial
  1
ByLayer
 72
     0
 43
0.0208333333333333
 43
0.0
 43
0.0
 43
0.0
 43
0.0
 43
0.0208333333333333
 43
0.0
 43
0.0
 43
0.0
 43
0.0
 43
1.0
 43
0.0
 43
0.0
 43
0.0
 43
0.0
 43
1.0
 77
     0
 47
0.0208333333333333
 47
0.0
 47
0.0
 47
0.0
 47
0.0
 47
0.0208333333333333
 47
0.0
 47
0.0
 47
0.0
 47
0.0
 47
1.0
 47
0.0
 47
0.0
 47
0.0
 47
0.0
 47
1.0
171
     0
 49
0.0208333333333333
 49
0.0
 49
0.0
 49
0.0
 49
0.0
 49
0.0208333333333333
 49
0.0
 49
0.0
 49
0.0
 49
0.0
 49
1.0
 49
0.0
 49
0.0
 49
0.0
 49
0.0
 49
1.0
175
     0
142
0.0208333333333333
142
0.0
142
0.0
142
0.0
142
0.0
142
0.0208333333333333
142
0.0
142
0.0
142
0.0
142
0.0
142
1.0
142
0.0
142
0.0
142
0.0
142
0.0
142
1.0
179
     0
144
0.0208333333333333
144
0.0
144
0.0
144
0.0
144
0.0
144
0.0208333333333333
144
0.0
144
0.0
144
0.0
144
0.0
144
1.0
144
0.0
144
0.0
144
0.0
144
0.0
144
1.0
147
0.0208333333333333
147
0.0
147
0.0
147
0.0
147
0.0
147
0.0208333333333333
147
0.0
147
0.0
147
0.0
147
0.0
147
1.0
147
0.0
147
0.0
147
0.0
147
0.0
147
1.0
  0
MATERIAL
  5
5F1B
102
{ACAD_XDICTIONARY
360
5F1C
102
}
102
{ACAD_REACTORS
330
5F0A
102
}
330
5F0A
100
AcDbMaterial
  1
Global
 72
     0
 43
0.0208333333333333
 43
0.0
 43
0.0
 43
0.0
 43
0.0
 43
0.0208333333333333
 43
0.0
 43
0.0
 43
0.0
 43
0.0
 43
1.0
 43
0.0
 43
0.0
 43
0.0
 43
0.0
 43
1.0
 77
     0
 47
0.0208333333333333
 47
0.0
 47
0.0
 47
0.0
 47
0.0
 47
0.0208333333333333
 47
0.0
 47
0.0
 47
0.0
 47
0.0
 47
1.0
 47
0.0
 47
0.0
 47
0.0
 47
0.0
 47
1.0
171
     0
 49
0.0208333333333333
 49
0.0
 49
0.0
 49
0.0
 49
0.0
 49
0.0208333333333333
 49
0.0
 49
0.0
 49
0.0
 49
0.0
 49
1.0
 49
0.0
 49
0.0
 49
0.0
 49
0.0
 49
1.0
175
     0
142
0.0208333333333333
142
0.0
142
0.0
142
0.0
142
0.0
142
0.0208333333333333
142
0.0
142
0.0
142
0.0
142
0.0
142
1.0
142
0.0
142
0.0
142
0.0
142
0.0
142
1.0
179
     0
144
0.0208333333333333
144
0.0
144
0.0
144
0.0
144
0.0
144
0.0208333333333333
144
0.0
144
0.0
144
0.0
144
0.0
144
1.0
144
0.0
144
0.0
144
0.0
144
0.0
144
1.0
147
0.0208333333333333
147
0.0
147
0.0
147
0.0
147
0.0
147
0.0208333333333333
147
0.0
147
0.0
147
0.0
147
0.0
147
1.0
147
0.0
147
0.0
147
0.0
147
0.0
147
1.0
  0
MLEADERSTYLE
  5
5F68
102
{ACAD_REACTORS
330
5F67
102
}
330
5F67
100
AcDbMLeaderStyle
170
     2
171
     1
172
     0
 90
        2
 40
0.0
 41
0.0
173
     1
 91
-1056964608
340
5F5C
 92
       -2
290
     1
 42
0.09
291
     1
 43
0.36
  3
Standard
 44
0.18
300

342
5F57
174
     1
178
     6
175
     1
176
     0
 93
-1056964608
 45
0.18
292
     0
297
     0
 46
0.18
 94
-1056964608
 47
1.0
 49
1.0
140
1.0
293
     1
141
0.0
294
     1
177
     0
142
1.0
295
     0
296
     0
143
0.125
1001
ACAD_MLEADERVER
1070
     2
  0
MLINESTYLE
  5
5F61
102
{ACAD_REACTORS
330
5F60
102
}
330
5F60
100
AcDbMlineStyle
  2
STANDARD
 70
     0
  3

 62
   256
 51
90.0
 52
90.0
 71
     2
 49
0.5
 62
   256
  6
BYLAYER
 49
-0.5
 62
   256
  6
BYLAYER
  0
ACDBPLACEHOLDER
  5
5F09
102
{ACAD_REACTORS
330
5F08
102
}
330
5F08
  0
SCALE
  5
5F35
102
{ACAD_REACTORS
330
5F34
102
}
330
5F34
100
AcDbScale
 70
     0
300
1:1
140
1.0
141
1.0
290
     1
  0
SCALE
  5
5F36
102
{ACAD_REACTORS
330
5F34
102
}
330
5F34
100
AcDbScale
 70
     0
300
1:2
140
1.0
141
2.0
290
     0
  0
SCALE
  5
5F37
102
{ACAD_REACTORS
330
5F34
102
}
330
5F34
100
AcDbScale
 70
     0
300
1:4
140
1.0
141
4.0
290
     0
  0
SCALE
  5
5F38
102
{ACAD_REACTORS
330
5F34
102
}
330
5F34
100
AcDbScale
 70
     0
300
1:5
140
1.0
141
5.0
290
     0
  0
SCALE
  5
5F39
102
{ACAD_REACTORS
330
5F34
102
}
330
5F34
100
AcDbScale
 70
     0
300
1:8
140
1.0
141
8.0
290
     0
  0
SCALE
  5
5F3A
102
{ACAD_REACTORS
330
5F34
102
}
330
5F34
100
AcDbScale
 70
     0
300
1:10
140
1.0
141
10.0
290
     0
  0
SCALE
  5
5F3B
102
{ACAD_REACTORS
330
5F34
102
}
330
5F34
100
AcDbScale
 70
     0
300
1:16
140
1.0
141
16.0
290
     0
  0
SCALE
  5
5F3C
102
{ACAD_REACTORS
330
5F34
102
}
330
5F34
100
AcDbScale
 70
     0
300
1:20
140
1.0
141
20.0
290
     0
  0
SCALE
  5
5F3D
102
{ACAD_REACTORS
330
5F34
102
}
330
5F34
100
AcDbScale
 70
     0
300
1:30
140
1.0
141
30.0
290
     0
  0
SCALE
  5
5F3E
102
{ACAD_REACTORS
330
5F34
102
}
330
5F34
100
AcDbScale
 70
     0
300
1:40
140
1.0
141
40.0
290
     0
  0
SCALE
  5
5F3F
102
{ACAD_REACTORS
330
5F34
102
}
330
5F34
100
AcDbScale
 70
     0
300
1:50
140
1.0
141
50.0
290
     0
  0
SCALE
  5
5F40
102
{ACAD_REACTORS
330
5F34
102
}
330
5F34
100
AcDbScale
 70
     0
300
1:100
140
1.0
141
100.0
290
     0
  0
SCALE
  5
5F41
102
{ACAD_REACTORS
330
5F34
102
}
330
5F34
100
AcDbScale
 70
     0
300
2:1
140
2.0
141
1.0
290
     0
  0
SCALE
  5
5F42
102
{ACAD_REACTORS
330
5F34
102
}
330
5F34
100
AcDbScale
 70
     0
300
4:1
140
4.0
141
1.0
290
     0
  0
SCALE
  5
5F43
102
{ACAD_REACTORS
330
5F34
102
}
330
5F34
100
AcDbScale
 70
     0
300
8:1
140
8.0
141
1.0
290
     0
  0
SCALE
  5
5F44
102
{ACAD_REACTORS
330
5F34
102
}
330
5F34
100
AcDbScale
 70
     0
300
10:1
140
10.0
141
1.0
290
     0
  0
SCALE
  5
5F45
102
{ACAD_REACTORS
330
5F34
102
}
330
5F34
100
AcDbScale
 70
     0
300
100:1
140
100.0
141
1.0
290
     0
  0
SCALE
  5
5F46
102
{ACAD_REACTORS
330
5F34
102
}
330
5F34
100
AcDbScale
 70
     0
300
1/128" = 1'-0"
140
0.0078125
141
12.0
290
     0
  0
SCALE
  5
5F47
102
{ACAD_REACTORS
330
5F34
102
}
330
5F34
100
AcDbScale
 70
     0
300
1/64" = 1'-0"
140
0.015625
141
12.0
290
     0
  0
SCALE
  5
5F48
102
{ACAD_REACTORS
330
5F34
102
}
330
5F34
100
AcDbScale
 70
     0
300
1/32" = 1'-0"
140
0.03125
141
12.0
290
     0
  0
SCALE
  5
5F49
102
{ACAD_REACTORS
330
5F34
102
}
330
5F34
100
AcDbScale
 70
     0
300
1/16" = 1'-0"
140
0.0625
141
12.0
290
     0
  0
SCALE
  5
5F4A
102
{ACAD_REACTORS
330
5F34
102
}
330
5F34
100
AcDbScale
 70
     0
300
3/32" = 1'-0"
140
0.09375
141
12.0
290
     0
  0
SCALE
  5
5F4B
102
{ACAD_REACTORS
330
5F34
102
}
330
5F34
100
AcDbScale
 70
     0
300
1/8" = 1'-0"
140
0.125
141
12.0
290
     0
  0
SCALE
  5
5F4C
102
{ACAD_REACTORS
330
5F34
102
}
330
5F34
100
AcDbScale
 70
     0
300
3/16" = 1'-0"
140
0.1875
141
12.0
290
     0
  0
SCALE
  5
5F4D
102
{ACAD_REACTORS
330
5F34
102
}
330
5F34
100
AcDbScale
 70
     0
300
1/4" = 1'-0"
140
0.25
141
12.0
290
     0
  0
SCALE
  5
5F4E
102
{ACAD_REACTORS
330
5F34
102
}
330
5F34
100
AcDbScale
 70
     0
300
3/8" = 1'-0"
140
0.375
141
12.0
290
     0
  0
SCALE
  5
5F4F
102
{ACAD_REACTORS
330
5F34
102
}
330
5F34
100
AcDbScale
 70
     0
300
1/2" = 1'-0"
140
0.5
141
12.0
290
     0
  0
SCALE
  5
5F50
102
{ACAD_REACTORS
330
5F34
102
}
330
5F34
100
AcDbScale
 70
     0
300
3/4" = 1'-0"
140
0.75
141
12.0
290
     0
  0
SCALE
  5
5F51
102
{ACAD_REACTORS
330
5F34
102
}
330
5F34
100
AcDbScale
 70
     0
300
1" = 1'-0"
140
1.0
141
12.0
290
     0
  0
SCALE
  5
5F52
102
{ACAD_REACTORS
330
5F34
102
}
330
5F34
100
AcDbScale
 70
     0
300
1-1/2" = 1'-0"
140
1.5
141
12.0
290
     0
  0
SCALE
  5
5F53
102
{ACAD_REACTORS
330
5F34
102
}
330
5F34
100
AcDbScale
 70
     0
300
3" = 1'-0"
140
3.0
141
12.0
290
     0
  0
SCALE
  5
5F54
102
{ACAD_REACTORS
330
5F34
102
}
330
5F34
100
AcDbScale
 70
     0
300
6" = 1'-0"
140
6.0
141
12.0
290
     0
  0
SCALE
  5
5F55
102
{ACAD_REACTORS
330
5F34
102
}
330
5F34
100
AcDbScale
 70
     0
300
1'-0" = 1'-0"
140
12.0
141
12.0
290
     0
  0
TABLESTYLE
  5
5F66
102
{ACAD_XDICTIONARY
360
6F6E
102
}
102
{ACAD_REACTORS
330
5F65
102
}
330
5F65
100
AcDbTableStyle
  3
Standard
 70
     0
 71
     0
 40
0.06
 41
0.06
280
     0
281
     0
  7
STANDARD
140
0.18
170
     2
 62
     0
 63
     7
283
     0
274
    -2
284
     1
 64
     0
275
    -2
285
     1
 65
     0
276
    -2
286
     1
 66
     0
277
    -2
287
     1
 67
     0
278
    -2
288
     1
 68
     0
279
    -2
289
     1
 69
     0
  7
STANDARD
140
0.25
170
     5
 62
     0
 63
     7
283
     0
274
    -2
284
     1
 64
     0
275
    -2
285
     1
 65
     0
276
    -2
286
     1
 66
     0
277
    -2
287
     1
 67
     0
278
    -2
288
     1
 68
     0
279
    -2
289
     1
 69
     0
  7
STANDARD
140
0.18
170
     5
 62
     0
 63
     7
283
     0
274
    -2
284
     1
 64
     0
275
    -2
285
     1
 65
     0
276
    -2
286
     1
 66
     0
277
    -2
287
     1
 67
     0
278
    -2
288
     1
 68
     0
279
    -2
289
     1
 69
     0
  0
VISUALSTYLE
  5
5F29
102
{ACAD_REACTORS
330
5F23
102
}
330
5F23
100
AcDbVisualStyle
  2
2dWireframe
 70
     4
 71
     0
 72
     2
 73
     0
 90
        0
 40
-0.6
 41
-30.0
 62
     5
 63
     7
 74
     1
 91
        4
 64
     7
 65
   257
 75
     1
175
     1
 42
1.0
 92
        0
 66
   257
 43
1.0
 76
     1
 77
     6
 78
     2
 67
     7
 79
     5
170
     0
171
     0
290
     0
174
     0
 93
        1
 44
0.0
173
     0
291
     0
 45
0.0
1001
ACAD
1000
AcDbSavedByObjectVersion
1070
     0
1000
AcDbSavedByObjectVersion
1070
     0
1000
AcDbSavedByObjectVersion
1070
     0
1000
AcDbSavedByObjectVersion
1070
     0
1000
AcDbSavedByObjectVersion
1070
     0
  0
VISUALSTYLE
  5
5F2B
102
{ACAD_REACTORS
330
5F23
102
}
330
5F23
100
AcDbVisualStyle
  2
3D Hidden
 70
     6
 71
     1
 72
     2
 73
     2
 90
        0
 40
-0.6
 41
-30.0
 62
     5
 63
     7
 74
     2
 91
        2
 64
     7
 65
   257
 75
     2
175
     1
 42
40.0
 92
        0
 66
   257
 43
1.0
 76
     1
 77
     6
 78
     2
 67
     7
 79
     3
170
     0
171
     0
290
     0
174
     0
 93
        1
 44
0.0
173
     0
291
     0
 45
0.0
1001
ACAD
1000
AcDbSavedByObjectVersion
1070
     0
1000
AcDbSavedByObjectVersion
1070
     0
1000
AcDbSavedByObjectVersion
1070
     0
1000
AcDbSavedByObjectVersion
1070
     0
1000
AcDbSavedByObjectVersion
1070
     0
  0
VISUALSTYLE
  5
5F2A
102
{ACAD_REACTORS
330
5F23
102
}
330
5F23
100
AcDbVisualStyle
  2
3dWireframe
 70
     5
 71
     0
 72
     2
 73
     0
 90
        0
 40
-0.6
 41
-30.0
 62
     5
 63
     7
 74
     1
 91
        4
 64
     7
 65
   257
 75
     1
175
     1
 42
1.0
 92
        0
 66
   257
 43
1.0
 76
     1
 77
     6
 78
     2
 67
     7
 79
     5
170
     0
171
     0
290
     0
174
     0
 93
        1
 44
0.0
173
     0
291
     0
 45
0.0
1001
ACAD
1000
AcDbSavedByObjectVersion
1070
     0
1000
AcDbSavedByObjectVersion
1070
     0
1000
AcDbSavedByObjectVersion
1070
     0
1000
AcDbSavedByObjectVersion
1070
     0
1000
AcDbSavedByObjectVersion
1070
     0
  0
VISUALSTYLE
  5
5F28
102
{ACAD_REACTORS
330
5F23
102
}
330
5F23
100
AcDbVisualStyle
  2
Basic
 70
     7
 71
     1
 72
     0
 73
     1
 90
        0
 40
-0.6
 41
-30.0
 62
     5
 63
     7
 74
     0
 91
        4
 64
     7
 65
   257
 75
     1
175
     1
 42
1.0
 92
        8
 66
     7
 43
1.0
 76
     1
 77
     6
 78
     2
 67
     7
 79
     5
170
     0
171
     0
290
     0
174
     0
 93
        1
 44
0.0
173
     0
291
     1
 45
0.0
1001
ACAD
1000
AcDbSavedByObjectVersion
1070
     0
1000
AcDbSavedByObjectVersion
1070
     0
1000
AcDbSavedByObjectVersion
1070
     0
1000
AcDbSavedByObjectVersion
1070
     0
1000
AcDbSavedByObjectVersion
1070
     0
  0
VISUALSTYLE
  5
5F2F
102
{ACAD_REACTORS
330
5F23
102
}
330
5F23
100
AcDbVisualStyle
  2
Brighten
 70
    12
 71
     2
 72
     2
 73
     0
 90
        0
 40
-0.6
 41
-30.0
 62
     5
 63
     7
 74
     1
 91
        4
 64
     7
 65
   257
 75
     1
175
     1
 42
1.0
 92
        8
 66
     7
 43
1.0
 76
     1
 77
     6
 78
     2
 67
     7
 79
     5
170
     0
171
     0
290
     0
174
     0
 93
        1
 44
50.0
173
     0
291
     1
 45
0.0
1001
ACAD
1000
AcDbSavedByObjectVersion
1070
     0
1000
AcDbSavedByObjectVersion
1070
     0
1000
AcDbSavedByObjectVersion
1070
     0
1000
AcDbSavedByObjectVersion
1070
     0
1000
AcDbSavedByObjectVersion
1070
     0
  0
VISUALSTYLE
  5
5F33
102
{ACAD_REACTORS
330
5F23
102
}
330
5F23
100
AcDbVisualStyle
  2
ColorChange
 70
    16
 71
     2
 72
     2
 73
     3
 90
        0
 40
-0.6
 41
-30.0
 62
     5
 63
     8
 74
     1
 91
        4
 64
     7
 65
   257
 75
     1
175
     1
 42
1.0
 92
        8
 66
     8
 43
1.0
 76
     1
 77
     6
 78
     2
 67
     7
 79
     5
170
     0
171
     0
290
     0
174
     0
 93
        1
 44
0.0
173
     0
291
     1
 45
0.0
1001
ACAD
1000
AcDbSavedByObjectVersion
1070
     0
1000
AcDbSavedByObjectVersion
1070
     0
1000
AcDbSavedByObjectVersion
1070
     0
1000
AcDbSavedByObjectVersion
1070
     0
1000
AcDbSavedByObjectVersion
1070
     0
  0
VISUALSTYLE
  5
5F2C
102
{ACAD_REACTORS
330
5F23
102
}
330
5F23
100
AcDbVisualStyle
  2
Conceptual
 70
     9
 71
     3
 72
     2
 73
     0
 90
        0
 40
-0.6
 41
-30.0
 62
     5
 63
     7
 74
     2
 91
        2
 64
     7
 65
   257
 75
     1
175
     1
 42
40.0
 92
        8
 66
     7
 43
1.0
 76
     1
 77
     6
 78
     2
 67
     7
 79
     3
170
     0
171
     0
290
     0
174
     0
 93
        1
 44
0.0
173
     0
291
     0
 45
0.0
1001
ACAD
1000
AcDbSavedByObjectVersion
1070
     0
1000
AcDbSavedByObjectVersion
1070
     0
1000
AcDbSavedByObjectVersion
1070
     0
1000
AcDbSavedByObjectVersion
1070
     0
1000
AcDbSavedByObjectVersion
1070
     0
  0
VISUALSTYLE
  5
5F2E
102
{ACAD_REACTORS
330
5F23
102
}
330
5F23
100
AcDbVisualStyle
  2
Dim
 70
    11
 71
     2
 72
     2
 73
     0
 90
        0
 40
-0.6
 41
-30.0
 62
     5
 63
     7
 74
     1
 91
        4
 64
     7
 65
   257
 75
     1
175
     1
 42
1.0
 92
        8
 66
     7
 43
1.0
 76
     1
 77
     6
 78
     2
 67
     7
 79
     5
170
     0
171
     0
290
     0
174
     0
 93
        1
 44
-50.0
173
     0
291
     1
 45
0.0
1001
ACAD
1000
AcDbSavedByObjectVersion
1070
     0
1000
AcDbSavedByObjectVersion
1070
     0
1000
AcDbSavedByObjectVersion
1070
     0
1000
AcDbSavedByObjectVersion
1070
     0
1000
AcDbSavedByObjectVersion
1070
     0
  0
VISUALSTYLE
  5
5F32
102
{ACAD_REACTORS
330
5F23
102
}
330
5F23
100
AcDbVisualStyle
  2
Facepattern
 70
    15
 71
     2
 72
     2
 73
     0
 90
        0
 40
-0.6
 41
-30.0
 62
     5
 63
     7
 74
     1
 91
        4
 64
     7
 65
   257
 75
     1
175
     1
 42
1.0
 92
        8
 66
     7
 43
1.0
 76
     1
 77
     6
 78
     2
 67
     7
 79
     5
170
     0
171
     0
290
     0
174
     0
 93
        1
 44
0.0
173
     0
291
     1
 45
0.0
1001
ACAD
1000
AcDbSavedByObjectVersion
1070
     0
1000
AcDbSavedByObjectVersion
1070
     0
1000
AcDbSavedByObjectVersion
1070
     0
1000
AcDbSavedByObjectVersion
1070
     0
1000
AcDbSavedByObjectVersion
1070
     0
  0
VISUALSTYLE
  5
5F24
102
{ACAD_REACTORS
330
5F23
102
}
330
5F23
100
AcDbVisualStyle
  2
Flat
 70
     0
 71
     2
 72
     1
 73
     1
 90
        2
 40
-0.6
 41
30.0
 62
     5
 63
     7
 74
     0
 91
        4
 64
     7
 65
   257
 75
     1
175
     1
 42
1.0
 92
        8
 66
     7
 43
1.0
 76
     1
 77
     6
 78
     2
 67
     7
 79
     5
170
     0
171
     0
290
     0
174
     0
 93
       13
 44
0.0
173
     0
291
     1
 45
0.0
1001
ACAD
1000
AcDbSavedByObjectVersion
1070
     0
1000
AcDbSavedByObjectVersion
1070
     0
1000
AcDbSavedByObjectVersion
1070
     0
1000
AcDbSavedByObjectVersion
1070
     0
1000
AcDbSavedByObjectVersion
1070
     0
  0
VISUALSTYLE
  5
5F25
102
{ACAD_REACTORS
330
5F23
102
}
330
5F23
100
AcDbVisualStyle
  2
FlatWithEdges
 70
     1
 71
     2
 72
     1
 73
     1
 90
        2
 40
-0.6
 41
30.0
 62
     5
 63
     7
 74
     1
 91
        4
 64
     7
 65
   257
 75
     1
175
     1
 42
1.0
 92
        0
 66
   257
 43
1.0
 76
     1
 77
     6
 78
     2
 67
     7
 79
     5
170
     0
171
     0
290
     0
174
     0
 93
       13
 44
0.0
173
     0
291
     1
 45
0.0
1001
ACAD
1000
AcDbSavedByObjectVersion
1070
     0
1000
AcDbSavedByObjectVersion
1070
     0
1000
AcDbSavedByObjectVersion
1070
     0
1000
AcDbSavedByObjectVersion
1070
     0
1000
AcDbSavedByObjectVersion
1070
     0
  0
VISUALSTYLE
  5
5F26
102
{ACAD_REACTORS
330
5F23
102
}
330
5F23
100
AcDbVisualStyle
  2
Gouraud
 70
     2
 71
     2
 72
     2
 73
     1
 90
        2
 40
-0.6
 41
30.0
 62
     5
 63
     7
 74
     0
 91
        4
 64
     7
 65
   257
 75
     1
175
     1
 42
1.0
 92
        0
 66
     7
 43
1.0
 76
     1
 77
     6
 78
     2
 67
     7
 79
     5
170
     0
171
     0
290
     0
174
     0
 93
       13
 44
0.0
173
     0
291
     1
 45
0.0
1001
ACAD
1000
AcDbSavedByObjectVersion
1070
     0
1000
AcDbSavedByObjectVersion
1070
     0
1000
AcDbSavedByObjectVersion
1070
     0
1000
AcDbSavedByObjectVersion
1070
     0
1000
AcDbSavedByObjectVersion
1070
     0
  0
VISUALSTYLE
  5
5F27
102
{ACAD_REACTORS
330
5F23
102
}
330
5F23
100
AcDbVisualStyle
  2
GouraudWithEdges
 70
     3
 71
     2
 72
     2
 73
     1
 90
        2
 40
-0.6
 41
30.0
 62
     5
 63
     7
 74
     1
 91
        4
 64
     7
 65
   257
 75
     1
175
     1
 42
1.0
 92
        0
 66
   257
 43
1.0
 76
     1
 77
     6
 78
     2
 67
     7
 79
     5
170
     0
171
     0
290
     0
174
     0
 93
       13
 44
0.0
173
     0
291
     1
 45
0.0
1001
ACAD
1000
AcDbSavedByObjectVersion
1070
     0
1000
AcDbSavedByObjectVersion
1070
     0
1000
AcDbSavedByObjectVersion
1070
     0
1000
AcDbSavedByObjectVersion
1070
     0
1000
AcDbSavedByObjectVersion
1070
     0
  0
VISUALSTYLE
  5
5F31
102
{ACAD_REACTORS
330
5F23
102
}
330
5F23
100
AcDbVisualStyle
  2
Linepattern
 70
    14
 71
     2
 72
     2
 73
     0
 90
        0
 40
-0.6
 41
-30.0
 62
     5
 63
     7
 74
     1
 91
        4
 64
     7
 65
   257
 75
     7
175
     7
 42
1.0
 92
        8
 66
     7
 43
1.0
 76
     1
 77
     6
 78
     2
 67
     7
 79
     5
170
     0
171
     0
290
     0
174
     0
 93
        1
 44
0.0
173
     0
291
     1
 45
0.0
1001
ACAD
1000
AcDbSavedByObjectVersion
1070
     0
1000
AcDbSavedByObjectVersion
1070
     0
1000
AcDbSavedByObjectVersion
1070
     0
1000
AcDbSavedByObjectVersion
1070
     0
1000
AcDbSavedByObjectVersion
1070
     0
  0
VISUALSTYLE
  5
5F2D
102
{ACAD_REACTORS
330
5F23
102
}
330
5F23
100
AcDbVisualStyle
  2
Realistic
 70
     8
 71
     2
 72
     2
 73
     0
 90
        0
 40
-0.6
 41
-30.0
 62
     5
 63
     7
 74
     1
 91
        0
 64
     7
 65
   257
 75
     1
175
     1
 42
1.0
 92
        8
 66
     8
 43
1.0
 76
     1
 77
     6
 78
     2
 67
     7
 79
     5
170
     0
171
     0
290
     0
174
     0
 93
       13
 44
0.0
173
     0
291
     0
 45
0.0
1001
ACAD
1000
AcDbSavedByObjectVersion
1070
     0
1000
AcDbSavedByObjectVersion
1070
     0
1000
AcDbSavedByObjectVersion
1070
     0
1000
AcDbSavedByObjectVersion
1070
     0
1000
AcDbSavedByObjectVersion
1070
     0
  0
VISUALSTYLE
  5
5F30
102
{ACAD_REACTORS
330
5F23
102
}
330
5F23
100
AcDbVisualStyle
  2
Thicken
 70
    13
 71
     2
 72
     2
 73
     0
 90
        0
 40
-0.6
 41
-30.0
 62
     5
 63
     7
 74
     1
 91
        4
 64
     7
 65
   257
 75
     1
175
     1
 42
1.0
 92
       12
 66
     7
 43
1.0
 76
     1
 77
     6
 78
     2
 67
     7
 79
     5
170
     0
171
     0
290
     0
174
     0
 93
        1
 44
0.0
173
     0
291
     1
 45
0.0
1001
ACAD
1000
AcDbSavedByObjectVersion
1070
     0
1000
AcDbSavedByObjectVersion
1070
     0
1000
AcDbSavedByObjectVersion
1070
     0
1000
AcDbSavedByObjectVersion
1070
     0
1000
AcDbSavedByObjectVersion
1070
     0
  0
DICTIONARYVAR
  5
6105
102
{ACAD_REACTORS
330
6102
102
}
330
6102
100
DictionaryVariables
280
     0
  1
1:1
  0
DICTIONARYVAR
  5
6104
102
{ACAD_REACTORS
330
6102
102
}
330
6102
100
DictionaryVariables
280
     0
  1
STANDARD
  0
DICTIONARYVAR
  5
6103
102
{ACAD_REACTORS
330
6102
102
}
330
6102
100
DictionaryVariables
280
     0
  1
STANDARD
  0
DICTIONARYVAR
  5
6108
102
{ACAD_REACTORS
330
6102
102
}
330
6102
100
DictionaryVariables
280
     0
  1
1
  0
DICTIONARYVAR
  5
6107
102
{ACAD_REACTORS
330
6102
102
}
330
6102
100
DictionaryVariables
280
     0
  1
0
  0
DICTIONARYVAR
  5
6106
102
{ACAD_REACTORS
330
6102
102
}
330
6102
100
DictionaryVariables
280
     0
  1
127
  0
VLO-VL
  5
60F3
102
{ACAD_REACTORS
330
60F2
102
}
330
60F2
100
vlo_VL
 90
   -64512
 91
       12
 92
        1
 40
2.5
300
(&VLO-R . 0)
  0
DICTIONARY
  5
8F9F
330
5F71
100
AcDbDictionary
280
     1
281
     1
  3
ACAD_XREC_ROUNDTRIP
360
8FA0
  0
DICTIONARY
  5
8F9D
330
5F6D
100
AcDbDictionary
280
     1
281
     1
  3
ACAD_XREC_ROUNDTRIP
360
8F9E
  0
DICTIONARY
  5
5F14
330
5F13
100
AcDbDictionary
280
     1
281
     1
  3
ACAD_XREC_ROUNDTRIP
360
6F73
  3
BUMPTILE
360
5F16
  3
DIFFUSETILE
360
5F15
  3
OPACITYTILE
360
5F19
  3
REFLECTIONTILE
360
5F18
  3
REFRACTIONTILE
360
5F1A
  3
SPECULARTILE
360
5F17
  0
DICTIONARY
  5
5F0C
330
5F0B
100
AcDbDictionary
280
     1
281
     1
  3
ACAD_XREC_ROUNDTRIP
360
6F72
  3
BUMPTILE
360
5F0E
  3
DIFFUSETILE
360
5F0D
  3
OPACITYTILE
360
5F11
  3
REFLECTIONTILE
360
5F10
  3
REFRACTIONTILE
360
5F12
  3
SPECULARTILE
360
5F0F
  0
DICTIONARY
  5
5F1C
330
5F1B
100
AcDbDictionary
280
     1
281
     1
  3
ACAD_XREC_ROUNDTRIP
360
6F74
  3
BUMPTILE
360
5F1E
  3
DIFFUSETILE
360
5F1D
  3
OPACITYTILE
360
5F21
  3
REFLECTIONTILE
360
5F20
  3
REFRACTIONTILE
360
5F22
  3
SPECULARTILE
360
5F1F
  0
DICTIONARY
  5
6F6E
330
5F66
100
AcDbDictionary
280
     1
281
     1
  3
ACAD_ROUNDTRIP_2008_TABLESTYLE_CELLSTYLEMAP
360
8F94
  3
ACAD_XREC_ROUNDTRIP
360
8F9C
  0
XRECORD
  5
8FA0
102
{ACAD_REACTORS
330
8F9F
102
}
330
8F9F
100
AcDbXrecord
280
     1
102
SHADEPLOT
 70
     0
102
SHADEPLOTRESLEVEL
 70
     2
102
SHADEPLOTCUSTOMDPI
 70
   300
  0
XRECORD
  5
8F9E
102
{ACAD_REACTORS
330
8F9D
102
}
330
8F9D
100
AcDbXrecord
280
     1
102
SHADEPLOT
 70
     0
102
SHADEPLOTRESLEVEL
 70
     2
102
SHADEPLOTCUSTOMDPI
 70
   300
  0
XRECORD
  5
6F73
102
{ACAD_REACTORS
330
5F14
102
}
330
5F14
100
AcDbXrecord
280
     1
102
MATERIAL
148
0.0
149
0.0
149
0.0
 93
        0
 94
      127
282
     0
 72
     0
 77
     0
171
     0
175
     0
179
     0
273
     0
  0
XRECORD
  5
5F16
102
{ACAD_REACTORS
330
5F14
102
}
330
5F14
100
AcDbXrecord
280
     1
270
     1
271
     1
  0
XRECORD
  5
5F15
102
{ACAD_REACTORS
330
5F14
102
}
330
5F14
100
AcDbXrecord
280
     1
270
     1
271
     1
  0
XRECORD
  5
5F19
102
{ACAD_REACTORS
330
5F14
102
}
330
5F14
100
AcDbXrecord
280
     1
270
     1
271
     1
  0
XRECORD
  5
5F18
102
{ACAD_REACTORS
330
5F14
102
}
330
5F14
100
AcDbXrecord
280
     1
270
     1
271
     1
  0
XRECORD
  5
5F1A
102
{ACAD_REACTORS
330
5F14
102
}
330
5F14
100
AcDbXrecord
280
     1
270
     1
271
     1
  0
XRECORD
  5
5F17
102
{ACAD_REACTORS
330
5F14
102
}
330
5F14
100
AcDbXrecord
280
     1
270
     1
271
     1
  0
XRECORD
  5
6F72
102
{ACAD_REACTORS
330
5F0C
102
}
330
5F0C
100
AcDbXrecord
280
     1
102
MATERIAL
148
0.0
149
0.0
149
0.0
 93
        0
 94
      127
282
     0
 72
     0
 77
     0
171
     0
175
     0
179
     0
273
     0
  0
XRECORD
  5
5F0E
102
{ACAD_REACTORS
330
5F0C
102
}
330
5F0C
100
AcDbXrecord
280
     1
270
     1
271
     1
  0
XRECORD
  5
5F0D
102
{ACAD_REACTORS
330
5F0C
102
}
330
5F0C
100
AcDbXrecord
280
     1
270
     1
271
     1
  0
XRECORD
  5
5F11
102
{ACAD_REACTORS
330
5F0C
102
}
330
5F0C
100
AcDbXrecord
280
     1
270
     1
271
     1
  0
XRECORD
  5
5F10
102
{ACAD_REACTORS
330
5F0C
102
}
330
5F0C
100
AcDbXrecord
280
     1
270
     1
271
     1
  0
XRECORD
  5
5F12
102
{ACAD_REACTORS
330
5F0C
102
}
330
5F0C
100
AcDbXrecord
280
     1
270
     1
271
     1
  0
XRECORD
  5
5F0F
102
{ACAD_REACTORS
330
5F0C
102
}
330
5F0C
100
AcDbXrecord
280
     1
270
     1
271
     1
  0
XRECORD
  5
6F74
102
{ACAD_REACTORS
330
5F1C
102
}
330
5F1C
100
AcDbXrecord
280
     1
102
MATERIAL
148
0.0
149
0.0
149
0.0
 93
        0
 94
      127
282
     0
 72
     0
 77
     0
171
     0
175
     0
179
     0
273
     0
  0
XRECORD
  5
5F1E
102
{ACAD_REACTORS
330
5F1C
102
}
330
5F1C
100
AcDbXrecord
280
     1
270
     1
271
     1
  0
XRECORD
  5
5F1D
102
{ACAD_REACTORS
330
5F1C
102
}
330
5F1C
100
AcDbXrecord
280
     1
270
     1
271
     1
  0
XRECORD
  5
5F21
102
{ACAD_REACTORS
330
5F1C
102
}
330
5F1C
100
AcDbXrecord
280
     1
270
     1
271
     1
  0
XRECORD
  5
5F20
102
{ACAD_REACTORS
330
5F1C
102
}
330
5F1C
100
AcDbXrecord
280
     1
270
     1
271
     1
  0
XRECORD
  5
5F22
102
{ACAD_REACTORS
330
5F1C
102
}
330
5F1C
100
AcDbXrecord
280
     1
270
     1
271
     1
  0
XRECORD
  5
5F1F
102
{ACAD_REACTORS
330
5F1C
102
}
330
5F1C
100
AcDbXrecord
280
     1
270
     1
271
     1
  0
CELLSTYLEMAP
  5
8F94
102
{ACAD_REACTORS
330
6F6E
102
}
330
6F6E
100
AcDbCellStyleMap
 90
        3
300
CELLSTYLE
  1
TABLEFORMAT_BEGIN
 90
        5
170
     1
 91
        0
 92
    32768
 62
   257
 93
        1
300
CONTENTFORMAT
  1
CONTENTFORMAT_BEGIN
 90
        0
 91
        0
 92
      512
 93
        0
300

 40
0.0
140
1.0
 94
        5
 62
     0
340
5F57
144
0.25
309
CONTENTFORMAT_END
171
     1
301
MARGIN
  1
CELLMARGIN_BEGIN
 40
0.06
 40
0.06
 40
0.06
 40
0.06
 40
0.18
 40
0.18
309
CELLMARGIN_END
 94
        6
 95
        1
302
GRIDFORMAT
  1
GRIDFORMAT_BEGIN
 90
        0
 91
        1
 62
     0
 92
       -2
340
0
 93
        0
 40
0.045
309
GRIDFORMAT_END
 95
        2
302
GRIDFORMAT
  1
GRIDFORMAT_BEGIN
 90
        0
 91
        1
 62
     0
 92
       -2
340
0
 93
        0
 40
0.045
309
GRIDFORMAT_END
 95
        4
302
GRIDFORMAT
  1
GRIDFORMAT_BEGIN
 90
        0
 91
        1
 62
     0
 92
       -2
340
0
 93
        0
 40
0.045
309
GRIDFORMAT_END
 95
        8
302
GRIDFORMAT
  1
GRIDFORMAT_BEGIN
 90
        0
 91
        1
 62
     0
 92
       -2
340
0
 93
        0
 40
0.045
309
GRIDFORMAT_END
 95
       16
302
GRIDFORMAT
  1
GRIDFORMAT_BEGIN
 90
        0
 91
        1
 62
     0
 92
       -2
340
0
 93
        0
 40
0.045
309
GRIDFORMAT_END
 95
       32
302
GRIDFORMAT
  1
GRIDFORMAT_BEGIN
 90
        0
 91
        1
 62
     0
 92
       -2
340
0
 93
        0
 40
0.045
309
GRIDFORMAT_END
309
TABLEFORMAT_END
  1
CELLSTYLE_BEGIN
 90
        1
 91
        1
300
_TITLE
309
CELLSTYLE_END
300
CELLSTYLE
  1
TABLEFORMAT_BEGIN
 90
        5
170
     1
 91
        0
 92
        0
 62
   257
 93
        1
300
CONTENTFORMAT
  1
CONTENTFORMAT_BEGIN
 90
        0
 91
        0
 92
      512
 93
        0
300

 40
0.0
140
1.0
 94
        5
 62
     0
340
5F57
144
0.18
309
CONTENTFORMAT_END
171
     1
301
MARGIN
  1
CELLMARGIN_BEGIN
 40
0.06
 40
0.06
 40
0.06
 40
0.06
 40
0.18
 40
0.18
309
CELLMARGIN_END
 94
        6
 95
        1
302
GRIDFORMAT
  1
GRIDFORMAT_BEGIN
 90
        0
 91
        1
 62
     0
 92
       -2
340
0
 93
        0
 40
0.045
309
GRIDFORMAT_END
 95
        2
302
GRIDFORMAT
  1
GRIDFORMAT_BEGIN
 90
        0
 91
        1
 62
     0
 92
       -2
340
0
 93
        0
 40
0.045
309
GRIDFORMAT_END
 95
        4
302
GRIDFORMAT
  1
GRIDFORMAT_BEGIN
 90
        0
 91
        1
 62
     0
 92
       -2
340
0
 93
        0
 40
0.045
309
GRIDFORMAT_END
 95
        8
302
GRIDFORMAT
  1
GRIDFORMAT_BEGIN
 90
        0
 91
        1
 62
     0
 92
       -2
340
0
 93
        0
 40
0.045
309
GRIDFORMAT_END
 95
       16
302
GRIDFORMAT
  1
GRIDFORMAT_BEGIN
 90
        0
 91
        1
 62
     0
 92
       -2
340
0
 93
        0
 40
0.045
309
GRIDFORMAT_END
 95
       32
302
GRIDFORMAT
  1
GRIDFORMAT_BEGIN
 90
        0
 91
        1
 62
     0
 92
       -2
340
0
 93
        0
 40
0.045
309
GRIDFORMAT_END
309
TABLEFORMAT_END
  1
CELLSTYLE_BEGIN
 90
        2
 91
        1
300
_HEADER
309
CELLSTYLE_END
300
CELLSTYLE
  1
TABLEFORMAT_BEGIN
 90
        5
170
     1
 91
        0
 92
        0
 62
   257
 93
        1
300
CONTENTFORMAT
  1
CONTENTFORMAT_BEGIN
 90
        0
 91
        0
 92
      512
 93
        0
300

 40
0.0
140
1.0
 94
        2
 62
     0
340
5F57
144
0.18
309
CONTENTFORMAT_END
171
     1
301
MARGIN
  1
CELLMARGIN_BEGIN
 40
0.06
 40
0.06
 40
0.06
 40
0.06
 40
0.18
 40
0.18
309
CELLMARGIN_END
 94
        6
 95
        1
302
GRIDFORMAT
  1
GRIDFORMAT_BEGIN
 90
        0
 91
        1
 62
     0
 92
       -2
340
0
 93
        0
 40
0.045
309
GRIDFORMAT_END
 95
        2
302
GRIDFORMAT
  1
GRIDFORMAT_BEGIN
 90
        0
 91
        1
 62
     0
 92
       -2
340
0
 93
        0
 40
0.045
309
GRIDFORMAT_END
 95
        4
302
GRIDFORMAT
  1
GRIDFORMAT_BEGIN
 90
        0
 91
        1
 62
     0
 92
       -2
340
0
 93
        0
 40
0.045
309
GRIDFORMAT_END
 95
        8
302
GRIDFORMAT
  1
GRIDFORMAT_BEGIN
 90
        0
 91
        1
 62
     0
 92
       -2
340
0
 93
        0
 40
0.045
309
GRIDFORMAT_END
 95
       16
302
GRIDFORMAT
  1
GRIDFORMAT_BEGIN
 90
        0
 91
        1
 62
     0
 92
       -2
340
0
 93
        0
 40
0.045
309
GRIDFORMAT_END
 95
       32
302
GRIDFORMAT
  1
GRIDFORMAT_BEGIN
 90
        0
 91
        1
 62
     0
 92
       -2
340
0
 93
        0
 40
0.045
309
GRIDFORMAT_END
309
TABLEFORMAT_END
  1
CELLSTYLE_BEGIN
 90
        3
 91
        2
300
_DATA
309
CELLSTYLE_END
  0
XRECORD
  5
8F9C
102
{ACAD_REACTORS
330
6F6E
102
}
330
6F6E
100
AcDbXrecord
280
     1
102
ACAD_ROUNDTRIP_PRE2007_TABLESTYLE
 90
      512
 91
        0
  1

 92
      512
 93
        0
  2

 94
      512
 95
        0
  3

  0
ENDSEC
  0
EOF
